<svg xmlns="http://www.w3.org/2000/svg">
<defs>
<font
   id="EmbeddedFont_1"
   horiz-adv-x="2048"
   horiz-origin-x="0"
   horiz-origin-y="0"
   vert-origin-x="512"
   vert-origin-y="768"
   vert-adv-y="1024">
   <font-face
   font-family="Arial embedded"
   units-per-em="2048"
   font-weight="normal"
   font-style="normal"
   ascent="1852"
   descent="423"
   id="font-face2" />
   <missing-glyph
   horiz-adv-x="2048"
   d="M 0,0 L 2047,0 2047,2047 0,2047 0,0 Z"
   id="missing-glyph4" />
   <glyph
   unicode="o"
   horiz-adv-x="980"
   d="M 1053,542 C 1053,353 1011,212 928,119 845,26 724,-20 565,-20 407,-20 288,28 207,125 126,221 86,360 86,542 86,915 248,1102 571,1102 736,1102 858,1057 936,966 1014,875 1053,733 1053,542 Z M 864,542 C 864,691 842,800 798,868 753,935 679,969 574,969 469,969 393,935 346,866 299,797 275,689 275,542 275,399 298,292 345,221 391,149 464,113 563,113 671,113 748,148 795,217 841,286 864,395 864,542 Z"
   id="glyph6" />
   <glyph
   unicode="m"
   horiz-adv-x="1457"
   d="M 768,0 L 768,686 C 768,791 754,863 725,903 696,943 645,963 570,963 493,963 433,934 388,875 343,816 321,734 321,627 L 321,0 142,0 142,851 C 142,977 140,1054 136,1082 L 306,1082 C 307,1079 307,1070 308,1055 309,1040 310,1024 311,1005 312,986 313,950 314,897 L 317,897 C 356,974 400,1027 450,1057 500,1087 561,1102 633,1102 715,1102 780,1086 828,1053 875,1020 908,968 927,897 L 930,897 C 967,970 1013,1022 1066,1054 1119,1086 1183,1102 1258,1102 1367,1102 1447,1072 1497,1013 1546,954 1571,856 1571,721 L 1571,0 1393,0 1393,686 C 1393,791 1379,863 1350,903 1321,943 1270,963 1195,963 1116,963 1055,934 1012,876 968,817 946,734 946,627 L 946,0 768,0 Z"
   id="glyph8" />
   <glyph
   unicode="l"
   horiz-adv-x="187"
   d="M 138,0 L 138,1484 318,1484 318,0 138,0 Z"
   id="glyph10" />
   <glyph
   unicode="k"
   horiz-adv-x="901"
   d="M 816,0 L 450,494 318,385 318,0 138,0 138,1484 318,1484 318,557 793,1082 1004,1082 565,617 1027,0 816,0 Z"
   id="glyph12" />
   <glyph
   unicode="i"
   horiz-adv-x="187"
   d="M 137,0 L 137,1082 317,1082 317,0 137,0 Z M 137,1312 L 137,1484 317,1484 317,1312 137,1312 Z"
   id="glyph14" />
   <glyph
   unicode="e"
   horiz-adv-x="980"
   d="M 276,503 C 276,379 302,283 353,216 404,149 479,115 578,115 656,115 719,131 766,162 813,193 844,233 861,281 L 1019,236 C 954,65 807,-20 578,-20 418,-20 296,28 213,123 129,218 87,360 87,548 87,727 129,864 213,959 296,1054 416,1102 571,1102 889,1102 1048,910 1048,527 L 1048,503 276,503 Z M 862,641 C 852,755 823,838 775,891 727,943 658,969 568,969 481,969 412,940 361,882 310,823 282,743 278,641 L 862,641 Z"
   id="glyph16" />
   <glyph
   unicode="d"
   horiz-adv-x="927"
   d="M 821,174 C 788,105 744,55 689,25 634,-5 565,-20 484,-20 347,-20 247,26 183,118 118,210 86,349 86,536 86,913 219,1102 484,1102 566,1102 634,1087 689,1057 744,1027 788,979 821,914 L 823,914 821,1035 821,1484 1001,1484 1001,223 C 1001,110 1003,36 1007,0 L 835,0 C 833,11 831,35 829,74 826,113 825,146 825,174 L 821,174 Z M 275,542 C 275,391 295,282 335,217 375,152 440,119 530,119 632,119 706,154 752,225 798,296 821,405 821,554 821,697 798,802 752,869 706,936 633,969 532,969 441,969 376,936 336,869 295,802 275,693 275,542 Z"
   id="glyph18" />
   <glyph
   unicode="c"
   horiz-adv-x="901"
   d="M 275,546 C 275,402 298,295 343,226 388,157 457,122 548,122 612,122 666,139 709,174 752,209 778,262 788,334 L 970,322 C 956,218 912,135 837,73 762,11 668,-20 553,-20 402,-20 286,28 207,124 127,219 87,359 87,542 87,724 127,863 207,959 287,1054 402,1102 551,1102 662,1102 754,1073 827,1016 900,959 945,880 964,779 L 779,765 C 770,825 746,873 708,908 670,943 616,961 546,961 451,961 382,929 339,866 296,803 275,696 275,546 Z"
   id="glyph20" />
   <glyph
   unicode="a"
   horiz-adv-x="1060"
   d="M 414,-20 C 305,-20 224,9 169,66 114,123 87,202 87,302 87,414 124,500 198,560 271,620 390,652 554,656 L 797,660 797,719 C 797,807 778,870 741,908 704,946 645,965 565,965 484,965 426,951 389,924 352,897 330,853 323,793 L 135,810 C 166,1005 310,1102 569,1102 705,1102 807,1071 876,1009 945,946 979,856 979,738 L 979,272 C 979,219 986,179 1000,152 1014,125 1041,111 1080,111 1097,111 1117,113 1139,118 L 1139,6 C 1094,-5 1047,-10 1000,-10 933,-10 885,8 855,43 824,78 807,132 803,207 L 797,207 C 751,124 698,66 637,32 576,-3 501,-20 414,-20 Z M 455,115 C 521,115 580,130 631,160 682,190 723,231 753,284 782,336 797,390 797,445 L 797,534 600,530 C 515,529 451,520 408,504 364,488 330,463 307,430 284,397 272,353 272,299 272,240 288,195 320,163 351,131 396,115 455,115 Z"
   id="glyph22" />
   <glyph
   unicode="S"
   horiz-adv-x="1192"
   d="M 1272,389 C 1272,259 1221,158 1120,87 1018,16 875,-20 690,-20 347,-20 148,99 93,338 L 278,375 C 299,290 345,228 414,189 483,149 578,129 697,129 820,129 916,150 983,193 1050,235 1083,297 1083,379 1083,425 1073,462 1052,491 1031,520 1001,543 963,562 925,581 880,596 827,609 774,622 716,635 652,650 541,675 456,699 399,724 341,749 295,776 262,807 229,837 203,872 186,913 168,954 159,1000 159,1053 159,1174 205,1267 298,1332 390,1397 522,1430 694,1430 854,1430 976,1406 1061,1357 1146,1308 1205,1224 1239,1106 L 1051,1073 C 1030,1148 991,1202 933,1236 875,1269 795,1286 692,1286 579,1286 493,1267 434,1230 375,1193 345,1137 345,1063 345,1020 357,984 380,956 403,927 436,903 479,884 522,864 609,840 738,811 781,801 825,791 868,781 911,770 952,758 991,744 1030,729 1067,712 1102,693 1136,674 1166,650 1191,622 1216,594 1236,561 1251,523 1265,485 1272,440 1272,389 Z"
   id="glyph24" />
   <glyph
   unicode="R"
   horiz-adv-x="1244"
   d="M 1164,0 L 798,585 359,585 359,0 168,0 168,1409 831,1409 C 990,1409 1112,1374 1199,1303 1285,1232 1328,1133 1328,1006 1328,901 1298,813 1237,742 1176,671 1091,626 984,607 L 1384,0 1164,0 Z M 1136,1004 C 1136,1086 1108,1149 1053,1192 997,1235 917,1256 812,1256 L 359,1256 359,736 820,736 C 921,736 999,760 1054,807 1109,854 1136,919 1136,1004 Z"
   id="glyph26" />
   <glyph
   unicode="P"
   horiz-adv-x="1112"
   d="M 1258,985 C 1258,852 1215,746 1128,667 1041,588 922,549 773,549 L 359,549 359,0 168,0 168,1409 761,1409 C 919,1409 1041,1372 1128,1298 1215,1224 1258,1120 1258,985 Z M 1066,983 C 1066,1165 957,1256 738,1256 L 359,1256 359,700 746,700 C 959,700 1066,794 1066,983 Z"
   id="glyph28" />
   <glyph
   unicode="M"
   horiz-adv-x="1377"
   d="M 1366,0 L 1366,940 C 1366,1044 1369,1144 1375,1240 1342,1121 1313,1027 1287,960 L 923,0 789,0 420,960 364,1130 331,1240 334,1129 338,940 338,0 168,0 168,1409 419,1409 794,432 C 807,393 820,351 833,306 845,261 853,228 857,208 862,235 874,275 891,330 908,384 919,418 925,432 L 1293,1409 1538,1409 1538,0 1366,0 Z"
   id="glyph30" />
   <glyph
   unicode="B"
   horiz-adv-x="1112"
   d="M 1258,397 C 1258,272 1212,174 1121,105 1030,35 903,0 740,0 L 168,0 168,1409 680,1409 C 1011,1409 1176,1295 1176,1067 1176,984 1153,914 1106,857 1059,800 993,762 908,743 1020,730 1106,692 1167,631 1228,569 1258,491 1258,397 Z M 1065,412 C 1065,578 948,661 715,661 L 359,661 359,153 730,153 C 847,153 932,175 985,218 1038,261 1065,326 1065,412 Z M 984,1044 C 984,1120 958,1174 906,1207 854,1240 779,1256 680,1256 L 359,1256 359,810 680,810 C 782,810 858,829 909,868 959,906 984,965 984,1044 Z"
   id="glyph32" />
   <glyph
   unicode=":"
   horiz-adv-x="213"
   d="M 187,0 L 187,207 382,207 382,0 187,0 Z M 187,875 L 187,1082 382,1082 382,875 187,875 Z"
   id="glyph34" />
   <glyph
   unicode="8"
   horiz-adv-x="980"
   d="M 1050,393 C 1050,263 1009,162 926,89 843,16 725,-20 570,-20 419,-20 302,16 217,87 132,158 89,260 89,391 89,483 115,560 168,623 221,686 288,724 370,737 L 370,741 C 293,759 233,798 189,858 144,918 122,988 122,1069 122,1176 162,1263 243,1330 323,1397 431,1430 566,1430 705,1430 814,1397 895,1332 975,1267 1015,1178 1015,1067 1015,986 993,916 948,856 903,796 842,758 765,743 L 765,739 C 855,724 925,686 975,625 1025,563 1050,486 1050,393 Z M 863,410 C 863,497 837,563 785,608 733,652 660,674 566,674 475,674 403,650 352,603 301,555 275,489 275,406 275,212 374,115 572,115 670,115 743,139 791,186 839,233 863,307 863,410 Z M 828,1057 C 828,1216 741,1296 566,1296 481,1296 417,1276 373,1236 328,1196 306,1136 306,1057 306,976 329,915 375,873 420,830 485,809 568,809 653,809 717,829 762,868 806,907 828,970 828,1057 Z"
   id="glyph36" />
   <glyph
   unicode="6"
   horiz-adv-x="980"
   d="M 1049,461 C 1049,312 1009,195 928,109 847,23 736,-20 594,-20 435,-20 314,39 230,157 146,275 104,447 104,672 104,916 148,1103 235,1234 322,1365 447,1430 608,1430 821,1430 955,1334 1010,1143 L 838,1112 C 803,1227 725,1284 606,1284 503,1284 424,1236 368,1141 311,1045 283,906 283,725 316,786 362,832 421,864 480,895 548,911 625,911 755,911 858,870 935,789 1011,708 1049,598 1049,461 Z M 866,453 C 866,555 841,634 791,689 741,744 671,772 582,772 498,772 430,748 379,699 327,650 301,582 301,496 301,387 328,298 382,229 435,160 504,125 588,125 675,125 743,154 792,213 841,271 866,351 866,453 Z"
   id="glyph38" />
   <glyph
   unicode="5"
   horiz-adv-x="980"
   d="M 1053,459 C 1053,310 1009,193 921,108 832,23 710,-20 553,-20 422,-20 316,9 235,66 154,123 103,206 82,315 L 264,336 C 302,197 400,127 557,127 654,127 729,156 784,215 839,273 866,353 866,455 866,544 839,615 784,670 729,725 654,752 561,752 512,752 467,744 425,729 383,714 341,688 299,651 L 123,651 170,1409 971,1409 971,1256 334,1256 307,809 C 385,869 482,899 598,899 737,899 847,858 930,777 1012,696 1053,590 1053,459 Z"
   id="glyph40" />
   <glyph
   unicode="4"
   horiz-adv-x="1060"
   d="M 881,319 L 881,0 711,0 711,319 47,319 47,459 692,1409 881,1409 881,461 1079,461 1079,319 881,319 Z M 711,461 L 711,1206 C 696,1177 683,1153 673,1134 662,1115 653,1100 644,1087 L 321,609 C 302,582 266,532 213,461 L 711,461 Z"
   id="glyph42" />
   <glyph
   unicode="2"
   horiz-adv-x="954"
   d="M 103,0 L 103,127 C 137,205 179,274 228,334 277,393 328,447 382,496 436,544 490,589 543,630 596,671 643,713 686,754 729,795 763,839 790,884 816,929 829,981 829,1038 829,1115 806,1175 761,1218 716,1261 653,1282 572,1282 495,1282 432,1261 383,1220 333,1178 304,1119 295,1044 L 111,1061 C 124,1174 172,1263 255,1330 337,1397 443,1430 572,1430 714,1430 823,1397 900,1330 976,1263 1014,1167 1014,1044 1014,989 1002,935 977,881 952,827 914,773 865,719 816,665 721,581 582,468 505,405 444,349 399,299 354,248 321,200 301,153 L 1036,153 1036,0 103,0 Z"
   id="glyph44" />
   <glyph
   unicode="1"
   horiz-adv-x="927"
   d="M 156,0 L 156,153 515,153 515,1237 197,1010 197,1180 530,1409 696,1409 696,153 1039,153 1039,0 156,0 Z"
   id="glyph46" />
   <glyph
   unicode="0"
   horiz-adv-x="980"
   d="M 1059,705 C 1059,470 1018,290 935,166 852,42 729,-20 567,-20 405,-20 283,42 202,165 121,288 80,468 80,705 80,947 120,1128 199,1249 278,1370 402,1430 573,1430 739,1430 862,1369 941,1247 1020,1125 1059,944 1059,705 Z M 876,705 C 876,908 853,1056 806,1147 759,1238 681,1284 573,1284 462,1284 383,1239 335,1149 286,1059 262,911 262,705 262,505 287,359 336,266 385,173 462,127 569,127 675,127 753,174 802,269 851,364 876,509 876,705 Z"
   id="glyph48" />
   <glyph
   unicode="."
   horiz-adv-x="213"
   d="M 187,0 L 187,219 382,219 382,0 187,0 Z"
   id="glyph50" />
   <glyph
   unicode=" "
   horiz-adv-x="556"
   id="glyph52" />
  </font><font
   id="EmbeddedFont_2"
   horiz-adv-x="2048"
   horiz-origin-x="0"
   horiz-origin-y="0"
   vert-origin-x="512"
   vert-origin-y="768"
   vert-adv-y="1024">
   <font-face
   font-family="DejaVu Sans embedded"
   units-per-em="2048"
   font-weight="normal"
   font-style="normal"
   ascent="1879"
   descent="476"
   id="font-face57" />
   <missing-glyph
   horiz-adv-x="2048"
   d="M 0,0 L 2047,0 2047,2047 0,2047 0,0 Z"
   id="missing-glyph59" />
   <glyph
   unicode="U"
   horiz-adv-x="1165"
   d="M 178,1493 L 381,1493 381,586 C 381,426 410,311 468,241 526,170 620,135 750,135 879,135 973,170 1031,241 1089,311 1118,426 1118,586 L 1118,1493 1321,1493 1321,561 C 1321,366 1273,219 1177,120 1080,21 938,-29 750,-29 561,-29 419,21 323,120 226,219 178,366 178,561 L 178,1493 Z"
   id="glyph61" />
   <glyph
   unicode="T"
   horiz-adv-x="1297"
   d="M -6,1493 L 1257,1493 1257,1323 727,1323 727,0 524,0 524,1323 -6,1323 -6,1493 Z"
   id="glyph63" />
   <glyph
   unicode="S"
   horiz-adv-x="1060"
   d="M 1096,1444 L 1096,1247 C 1019,1284 947,1311 879,1329 811,1347 745,1356 682,1356 572,1356 487,1335 428,1292 368,1249 338,1189 338,1110 338,1044 358,994 398,961 437,927 512,900 623,879 L 745,854 C 896,825 1007,775 1079,703 1150,630 1186,533 1186,412 1186,267 1138,158 1041,83 944,8 801,-29 614,-29 543,-29 468,-21 389,-5 309,11 226,35 141,66 L 141,274 C 223,228 303,193 382,170 461,147 538,135 614,135 729,135 818,158 881,203 944,248 975,313 975,397 975,470 953,528 908,569 863,610 789,641 686,662 L 563,686 C 412,716 303,763 236,827 169,891 135,980 135,1094 135,1226 182,1330 275,1406 368,1482 496,1520 659,1520 729,1520 800,1514 873,1501 946,1488 1020,1469 1096,1444 Z"
   id="glyph65" />
   <glyph
   unicode="O"
   horiz-adv-x="1403"
   d="M 807,1356 C 660,1356 544,1301 458,1192 371,1083 328,934 328,745 328,557 371,408 458,299 544,190 660,135 807,135 954,135 1070,190 1156,299 1241,408 1284,557 1284,745 1284,934 1241,1083 1156,1192 1070,1301 954,1356 807,1356 Z M 807,1520 C 1016,1520 1184,1450 1309,1310 1434,1169 1497,981 1497,745 1497,510 1434,322 1309,182 1184,41 1016,-29 807,-29 597,-29 429,41 304,181 178,321 115,509 115,745 115,981 178,1169 304,1310 429,1450 597,1520 807,1520 Z"
   id="glyph67" />
   <glyph
   unicode="L"
   horiz-adv-x="954"
   d="M 201,1493 L 403,1493 403,170 1130,170 1130,0 201,0 201,1493 Z"
   id="glyph69" />
   <glyph
   unicode="G"
   horiz-adv-x="1324"
   d="M 1219,213 L 1219,614 889,614 889,780 1419,780 1419,139 C 1341,84 1255,42 1161,14 1067,-15 967,-29 860,-29 627,-29 444,39 313,176 181,312 115,502 115,745 115,989 181,1179 313,1316 444,1452 627,1520 860,1520 957,1520 1050,1508 1138,1484 1225,1460 1306,1425 1380,1378 L 1380,1163 C 1305,1226 1226,1274 1142,1306 1058,1338 970,1354 877,1354 694,1354 557,1303 466,1201 374,1099 328,947 328,745 328,544 374,392 466,290 557,188 694,137 877,137 948,137 1012,143 1068,156 1124,168 1174,187 1219,213 Z"
   id="glyph71" />
   <glyph
   unicode="E"
   horiz-adv-x="980"
   d="M 201,1493 L 1145,1493 1145,1323 403,1323 403,881 1114,881 1114,711 403,711 403,170 1163,170 1163,0 201,0 201,1493 Z"
   id="glyph73" />
   <glyph
   unicode="D"
   horiz-adv-x="1271"
   d="M 403,1327 L 403,166 647,166 C 853,166 1004,213 1100,306 1195,399 1243,547 1243,748 1243,948 1195,1095 1100,1188 1004,1281 853,1327 647,1327 L 403,1327 Z M 201,1493 L 616,1493 C 905,1493 1118,1433 1253,1313 1388,1192 1456,1004 1456,748 1456,491 1388,302 1252,181 1116,60 904,0 616,0 L 201,0 201,1493 Z"
   id="glyph75" />
   <glyph
   unicode="B"
   horiz-adv-x="1086"
   d="M 403,713 L 403,166 727,166 C 836,166 916,189 969,234 1021,279 1047,347 1047,440 1047,533 1021,602 969,647 916,691 836,713 727,713 L 403,713 Z M 403,1327 L 403,877 702,877 C 801,877 874,896 923,933 971,970 995,1026 995,1102 995,1177 971,1234 923,1271 874,1308 801,1327 702,1327 L 403,1327 Z M 201,1493 L 717,1493 C 871,1493 990,1461 1073,1397 1156,1333 1198,1242 1198,1124 1198,1033 1177,960 1134,906 1091,852 1029,818 946,805 1045,784 1123,739 1178,672 1233,604 1260,519 1260,418 1260,285 1215,182 1124,109 1033,36 904,0 737,0 L 201,0 201,1493 Z"
   id="glyph77" />
   <glyph
   unicode="9"
   horiz-adv-x="1059"
   d="M 225,31 L 225,215 C 276,191 327,173 379,160 431,147 482,141 532,141 665,141 767,186 838,276 908,365 948,501 958,684 919,627 870,583 811,552 752,521 686,506 614,506 465,506 347,551 260,642 173,732 129,855 129,1012 129,1165 174,1288 265,1381 356,1474 476,1520 627,1520 800,1520 932,1454 1023,1322 1114,1189 1159,997 1159,745 1159,510 1103,322 992,182 880,41 730,-29 541,-29 490,-29 439,-24 387,-14 335,-4 281,11 225,31 Z M 627,664 C 718,664 790,695 843,757 896,819 922,904 922,1012 922,1119 896,1204 843,1267 790,1329 718,1360 627,1360 536,1360 465,1329 412,1267 359,1204 332,1119 332,1012 332,904 359,819 412,757 465,695 536,664 627,664 Z"
   id="glyph79" />
   <glyph
   unicode="3"
   horiz-adv-x="1007"
   d="M 831,805 C 928,784 1003,741 1058,676 1112,611 1139,530 1139,434 1139,287 1088,173 987,92 886,11 742,-29 555,-29 492,-29 428,-23 362,-11 295,2 227,20 156,45 L 156,240 C 212,207 273,183 340,166 407,149 476,141 549,141 676,141 772,166 839,216 905,266 938,339 938,434 938,522 907,591 846,641 784,690 698,715 588,715 L 414,715 414,881 596,881 C 695,881 771,901 824,941 877,980 903,1037 903,1112 903,1189 876,1248 822,1289 767,1330 689,1350 588,1350 533,1350 473,1344 410,1332 347,1320 277,1301 201,1276 L 201,1456 C 278,1477 350,1493 417,1504 484,1515 547,1520 606,1520 759,1520 881,1485 970,1416 1059,1346 1104,1252 1104,1133 1104,1050 1080,981 1033,924 986,867 918,827 831,805 Z"
   id="glyph81" />
   <glyph
   unicode="2"
   horiz-adv-x="980"
   d="M 393,170 L 1098,170 1098,0 150,0 150,170 C 227,249 331,356 464,490 596,623 679,709 713,748 778,821 823,882 849,933 874,983 887,1032 887,1081 887,1160 859,1225 804,1275 748,1325 675,1350 586,1350 523,1350 456,1339 386,1317 315,1295 240,1262 160,1217 L 160,1421 C 241,1454 317,1478 388,1495 459,1512 523,1520 582,1520 737,1520 860,1481 952,1404 1044,1327 1090,1223 1090,1094 1090,1033 1079,975 1056,920 1033,865 991,800 930,725 913,706 860,650 771,558 682,465 556,336 393,170 Z"
   id="glyph83" />
   <glyph
   unicode="1"
   horiz-adv-x="900"
   d="M 254,170 L 584,170 584,1309 225,1237 225,1421 582,1493 784,1493 784,170 1114,170 1114,0 254,0 254,170 Z"
   id="glyph85" />
  </font><font
   id="EmbeddedFont_3"
   horiz-adv-x="2048"
   horiz-origin-x="0"
   horiz-origin-y="0"
   vert-origin-x="512"
   vert-origin-y="768"
   vert-adv-y="1024">
   <font-face
   font-family="Liberation Sans embedded"
   units-per-em="2048"
   font-weight="bold"
   font-style="normal"
   ascent="1852"
   descent="423"
   id="font-face90" />
   <missing-glyph
   horiz-adv-x="2048"
   d="M 0,0 L 2047,0 2047,2047 0,2047 0,0 Z"
   id="missing-glyph92" />
   <glyph
   unicode="y"
   horiz-adv-x="1139"
   d="M 584,241 L 834,1082 1128,1082 700,-57 C 646,-188 590,-281 532,-336 469,-395 386,-425 283,-425 216,-425 157,-421 106,-412 L 106,-212 C 141,-217 173,-220 202,-220 230,-220 255,-217 276,-211 297,-205 317,-195 334,-181 368,-153 399,-105 426,-37 L 444,11 16,1082 313,1082 584,241 Z"
   id="glyph94" />
   <glyph
   unicode="s"
   horiz-adv-x="1006"
   d="M 1055,316 C 1055,264 1044,217 1023,176 1001,135 969,100 928,71 887,42 836,19 776,4 716,-12 648,-20 571,-20 502,-20 440,-15 385,-5 330,5 281,22 240,45 198,68 163,97 135,134 107,171 86,216 72,270 L 319,307 C 327,277 338,253 352,234 366,215 383,201 404,191 425,181 449,174 477,171 504,168 536,166 571,166 603,166 633,168 661,172 688,175 712,182 733,191 753,200 769,212 780,229 791,245 797,265 797,290 797,318 789,340 773,357 756,373 734,386 706,397 677,407 644,416 606,424 567,431 526,440 483,450 438,460 393,472 349,486 305,500 266,519 231,543 196,567 168,598 147,635 126,672 115,718 115,775 115,826 125,872 145,913 165,953 194,987 233,1016 272,1044 320,1066 377,1081 434,1096 499,1103 573,1103 632,1103 686,1098 737,1087 788,1076 833,1058 873,1035 913,1011 947,981 974,944 1001,907 1019,863 1030,811 L 781,785 C 776,811 768,833 756,850 744,867 729,880 712,890 694,900 673,907 650,911 627,914 601,916 573,916 506,916 456,908 423,891 390,874 373,845 373,805 373,780 380,761 394,746 407,731 427,719 452,710 477,700 506,692 541,685 575,678 612,669 653,659 703,648 752,636 801,622 849,607 892,588 930,563 967,538 998,505 1021,466 1044,427 1055,377 1055,316 Z"
   id="glyph96" />
   <glyph
   unicode="r"
   horiz-adv-x="636"
   d="M 143,0 L 143,828 C 143,851 143,876 143,902 142,928 142,953 141,977 140,1000 139,1022 138,1041 137,1060 136,1073 135,1082 L 403,1082 C 404,1074 406,1060 407,1041 408,1021 410,999 411,976 412,953 414,930 415,907 416,884 416,865 416,851 L 420,851 C 434,890 448,926 462,957 476,988 493,1014 512,1036 531,1057 553,1074 580,1086 607,1097 640,1103 679,1103 696,1103 712,1102 729,1099 745,1096 757,1092 766,1088 L 766,853 C 748,857 730,861 712,864 693,867 671,868 646,868 576,868 522,840 483,783 444,726 424,642 424,531 L 424,0 143,0 Z"
   id="glyph98" />
   <glyph
   unicode="p"
   horiz-adv-x="1033"
   d="M 1167,546 C 1167,464 1159,388 1143,319 1126,250 1101,190 1067,140 1033,90 990,51 938,23 885,-6 823,-20 752,-20 720,-20 688,-17 657,-10 625,-3 595,8 566,23 537,38 511,57 487,82 462,106 441,136 424,172 L 418,172 C 419,169 419,160 420,147 421,134 421,118 422,101 423,83 423,64 424,45 424,25 424,7 424,-10 L 424,-425 143,-425 143,833 C 143,888 142,938 141,981 139,1024 137,1058 135,1082 L 408,1082 C 409,1077 411,1068 413,1055 414,1042 416,1026 417,1009 418,992 418,974 419,955 420,936 420,920 420,906 L 424,906 C 458,977 505,1028 564,1059 623,1090 692,1105 770,1105 839,1105 898,1091 948,1063 998,1035 1039,996 1072,947 1104,898 1128,839 1144,771 1159,702 1167,627 1167,546 Z M 874,546 C 874,669 855,761 818,821 781,880 725,910 651,910 623,910 595,904 568,893 540,881 515,861 494,833 472,804 454,766 441,719 427,671 420,611 420,538 420,467 427,409 440,362 453,315 471,277 493,249 514,221 539,201 566,190 593,178 621,172 649,172 685,172 717,179 745,194 773,208 797,230 816,261 835,291 849,330 859,377 869,424 874,481 874,546 Z"
   id="glyph100" />
   <glyph
   unicode="o"
   horiz-adv-x="1113"
   d="M 1171,542 C 1171,459 1160,384 1137,315 1114,246 1079,187 1033,138 987,88 930,49 861,22 792,-6 712,-20 621,-20 533,-20 455,-6 388,21 321,48 264,87 219,136 173,185 138,245 115,314 92,383 80,459 80,542 80,623 91,697 114,766 136,834 170,893 215,943 260,993 317,1032 386,1060 455,1088 535,1102 627,1102 724,1102 807,1088 876,1060 945,1032 1001,993 1045,944 1088,894 1120,835 1141,767 1161,698 1171,623 1171,542 Z M 877,542 C 877,671 856,764 814,822 772,880 711,909 631,909 548,909 485,880 441,821 397,762 375,669 375,542 375,477 381,422 393,375 404,328 421,290 442,260 463,230 489,208 519,194 549,179 582,172 618,172 659,172 696,179 729,194 761,208 788,230 810,260 832,290 849,328 860,375 871,422 877,477 877,542 Z"
   id="glyph102" />
   <glyph
   unicode="i"
   horiz-adv-x="292"
   d="M 143,1277 L 143,1484 424,1484 424,1277 143,1277 Z M 143,0 L 143,1082 424,1082 424,0 143,0 Z"
   id="glyph104" />
   <glyph
   unicode="e"
   horiz-adv-x="1007"
   d="M 586,-20 C 508,-20 438,-8 376,15 313,38 260,73 216,120 172,167 138,226 115,297 92,368 80,451 80,546 80,649 94,736 122,807 149,878 187,935 234,979 281,1022 335,1054 396,1073 457,1092 522,1102 590,1102 675,1102 748,1087 809,1058 869,1028 918,986 957,933 996,880 1024,816 1042,742 1060,667 1069,585 1069,495 L 1069,487 375,487 C 375,442 379,400 387,361 395,322 408,288 426,260 444,231 467,209 496,193 525,176 559,168 600,168 649,168 690,179 721,200 752,221 775,253 788,297 L 1053,274 C 1041,243 1024,211 1003,176 981,141 952,110 916,81 880,52 835,28 782,9 728,-10 663,-20 586,-20 Z M 586,925 C 557,925 531,920 506,911 481,901 459,886 441,865 422,844 407,816 396,783 385,750 378,710 377,663 L 797,663 C 792,750 771,816 734,860 697,903 648,925 586,925 Z"
   id="glyph106" />
   <glyph
   unicode="c"
   horiz-adv-x="1007"
   d="M 594,-20 C 508,-20 433,-7 369,20 304,47 251,84 208,133 165,182 133,240 112,309 91,377 80,452 80,535 80,625 92,705 115,776 138,846 172,905 216,954 260,1002 314,1039 379,1064 443,1089 516,1102 598,1102 668,1102 730,1093 785,1074 839,1055 886,1030 925,998 964,965 996,927 1021,883 1045,839 1062,792 1071,741 L 788,727 C 780,782 760,827 728,860 696,893 651,909 592,909 517,909 462,878 427,816 392,754 375,664 375,546 375,297 449,172 596,172 649,172 694,189 730,223 766,256 788,306 797,373 L 1079,360 C 1072,310 1057,262 1034,217 1010,171 978,131 938,96 897,61 848,33 791,12 734,-9 668,-20 594,-20 Z"
   id="glyph108" />
   <glyph
   unicode="b"
   horiz-adv-x="1033"
   d="M 1167,545 C 1167,463 1159,388 1143,319 1126,250 1101,190 1067,140 1033,89 990,50 938,22 885,-6 823,-20 752,-20 720,-20 688,-17 656,-10 624,-3 594,8 565,23 536,38 510,58 486,83 462,108 441,138 424,174 L 422,174 C 422,160 422,144 421,126 420,108 418,91 417,74 416,57 414,41 413,28 411,15 409,5 408,0 L 135,0 C 137,23 139,57 141,100 142,143 143,192 143,247 L 143,1484 424,1484 424,1070 C 424,1049 424,1028 424,1008 423,987 423,968 422,951 421,931 421,912 420,894 L 424,894 C 458,969 505,1022 564,1054 623,1086 692,1102 770,1102 839,1102 899,1088 949,1061 999,1033 1040,994 1073,945 1105,895 1129,836 1144,768 1159,700 1167,626 1167,545 Z M 874,545 C 874,668 856,759 820,818 784,877 728,907 653,907 624,907 596,901 568,890 540,879 515,859 493,831 471,802 453,764 440,717 427,669 420,609 420,536 420,465 427,407 440,360 453,313 471,276 492,248 513,220 538,200 566,189 594,178 622,172 651,172 722,172 777,202 816,261 855,320 874,414 874,545 Z"
   id="glyph110" />
   <glyph
   unicode="a"
   horiz-adv-x="1112"
   d="M 393,-20 C 341,-20 295,-13 254,2 213,16 178,37 149,65 120,92 98,126 83,167 68,208 60,254 60,306 60,370 71,424 94,468 116,511 146,547 185,574 224,601 269,620 321,633 373,645 428,651 487,652 L 720,656 720,711 C 720,750 717,783 710,810 703,836 692,857 679,874 666,891 649,903 630,910 610,917 587,920 562,920 539,920 518,918 500,913 481,908 465,900 452,889 439,877 428,861 420,842 411,822 405,797 402,767 L 109,781 C 117,828 132,872 153,911 174,950 204,983 242,1012 279,1041 326,1063 381,1079 436,1094 500,1102 574,1102 641,1102 701,1094 754,1077 807,1060 851,1036 888,1003 925,970 953,929 972,881 991,833 1001,777 1001,714 L 1001,320 C 1001,295 1002,272 1005,252 1007,232 1011,215 1018,202 1024,188 1033,178 1045,171 1056,164 1071,160 1090,160 1111,160 1132,162 1152,166 L 1152,14 C 1135,10 1120,6 1107,3 1094,0 1080,-3 1067,-5 1054,-7 1040,-9 1025,-10 1010,-11 992,-12 972,-12 901,-12 849,5 816,40 782,75 762,126 755,193 L 749,193 C 712,126 664,73 606,36 547,-1 476,-20 393,-20 Z M 720,501 L 576,499 C 546,498 518,495 491,492 464,488 440,480 420,469 399,457 383,440 371,418 359,396 353,366 353,328 353,277 365,239 389,214 412,189 444,176 483,176 519,176 552,184 581,199 610,214 635,235 656,260 676,285 692,313 703,346 714,379 720,412 720,446 L 720,501 Z"
   id="glyph112" />
   <glyph
   unicode="R"
   horiz-adv-x="1324"
   d="M 1105,0 L 778,535 432,535 432,0 137,0 137,1409 841,1409 C 929,1409 1006,1399 1072,1380 1137,1360 1192,1332 1236,1296 1280,1259 1313,1215 1335,1164 1356,1112 1367,1054 1367,989 1367,936 1359,888 1344,845 1328,801 1306,762 1279,728 1251,694 1218,666 1180,643 1142,620 1101,603 1056,592 L 1437,0 1105,0 Z M 1070,977 C 1070,1046 1048,1097 1003,1130 958,1163 893,1180 810,1180 L 432,1180 432,764 818,764 C 862,764 900,769 932,780 963,790 989,805 1010,824 1030,843 1045,865 1055,891 1065,917 1070,946 1070,977 Z"
   id="glyph114" />
   <glyph
   unicode="P"
   horiz-adv-x="1165"
   d="M 1296,963 C 1296,902 1286,844 1266,788 1245,731 1214,681 1172,638 1130,595 1077,560 1012,535 947,509 871,496 782,496 L 432,496 432,0 137,0 137,1409 770,1409 C 860,1409 938,1398 1004,1377 1070,1355 1125,1324 1168,1285 1211,1246 1244,1199 1265,1144 1286,1089 1296,1029 1296,963 Z M 999,958 C 999,1031 977,1086 934,1124 890,1161 824,1180 737,1180 L 432,1180 432,723 745,723 C 789,723 827,729 859,740 890,751 917,767 938,788 959,809 974,834 984,863 994,892 999,923 999,958 Z"
   id="glyph116" />
   <glyph
   unicode="2"
   horiz-adv-x="1006"
   d="M 71,0 L 71,195 C 103,265 142,328 188,385 234,441 282,493 333,540 383,587 433,630 483,671 532,711 577,750 617,788 656,825 688,863 713,901 738,939 750,979 750,1022 750,1085 734,1131 703,1161 672,1191 626,1206 565,1206 505,1206 459,1190 428,1158 396,1125 375,1077 366,1012 L 83,1028 C 90,1083 103,1135 124,1184 145,1233 174,1275 213,1312 251,1349 299,1378 357,1399 414,1420 483,1430 563,1430 639,1430 706,1421 765,1404 824,1386 873,1360 913,1326 953,1292 983,1251 1004,1202 1025,1153 1035,1097 1035,1034 1035,968 1022,908 996,855 970,802 937,753 896,708 855,663 810,620 761,581 711,542 663,503 616,466 569,429 527,391 489,353 450,315 422,274 403,231 L 1057,231 1057,0 71,0 Z"
   id="glyph118" />
   <glyph
   unicode="0"
   horiz-adv-x="980"
   d="M 1055,705 C 1055,570 1043,457 1018,365 993,272 959,198 916,141 872,84 820,43 761,18 701,-7 636,-20 565,-20 494,-20 429,-8 370,17 311,42 260,83 217,140 174,197 141,271 117,364 93,456 81,570 81,705 81,847 93,965 117,1058 140,1151 174,1225 217,1280 260,1335 312,1374 373,1397 433,1419 500,1430 573,1430 642,1430 706,1419 765,1397 824,1374 875,1335 918,1280 961,1225 994,1151 1019,1058 1043,965 1055,847 1055,705 Z M 773,705 C 773,804 769,887 762,952 755,1017 743,1068 727,1107 711,1145 690,1172 665,1187 639,1202 608,1210 571,1210 532,1210 499,1202 472,1187 445,1171 424,1144 408,1105 391,1066 380,1015 373,950 366,885 362,803 362,705 362,608 366,528 373,463 380,398 392,347 408,308 424,269 445,241 471,225 497,209 529,201 567,201 604,201 635,209 661,225 687,241 708,269 725,308 742,347 754,398 762,463 769,528 773,608 773,705 Z"
   id="glyph120" />
   <glyph
   unicode=")"
   horiz-adv-x="583"
   d="M 2,-425 C 55,-347 101,-270 139,-196 177,-120 208,-44 233,33 257,110 275,190 286,272 297,353 303,439 303,530 303,620 297,706 286,788 275,869 257,949 233,1026 208,1103 177,1180 139,1255 101,1330 55,1407 2,1484 L 283,1484 C 334,1410 379,1337 416,1264 453,1191 484,1116 509,1039 533,962 551,882 563,799 574,716 580,626 580,531 580,436 574,347 563,264 551,180 533,99 509,22 484,-55 453,-131 416,-204 379,-277 334,-351 283,-425 L 2,-425 Z"
   id="glyph122" />
   <glyph
   unicode="("
   horiz-adv-x="610"
   d="M 399,-425 C 348,-351 303,-277 266,-204 229,-131 198,-55 174,22 149,99 131,180 120,264 108,347 102,436 102,531 102,626 108,716 120,799 131,882 149,962 174,1039 198,1116 229,1191 266,1264 303,1337 348,1410 399,1484 L 680,1484 C 627,1407 581,1330 543,1255 505,1180 474,1103 450,1026 425,949 407,869 396,788 385,706 379,620 379,530 379,439 385,353 396,272 407,190 425,110 450,33 474,-44 505,-120 543,-196 581,-270 627,-347 680,-425 L 399,-425 Z"
   id="glyph124" />
   <glyph
   unicode=" "
   horiz-adv-x="556"
   id="glyph126" />
  </font><font
   id="EmbeddedFont_4"
   horiz-adv-x="2048"
   horiz-origin-x="0"
   horiz-origin-y="0"
   vert-origin-x="512"
   vert-origin-y="768"
   vert-adv-y="1024">
   <font-face
   font-family="LucidaGrande embedded"
   units-per-em="2048"
   font-weight="normal"
   font-style="normal"
   ascent="2170"
   descent="609"
   id="font-face131" />
   <missing-glyph
   horiz-adv-x="2048"
   d="M 0,0 L 2047,0 2047,2047 0,2047 0,0 Z"
   id="missing-glyph133" />
   <glyph
   unicode="s"
   horiz-adv-x="769"
   d="M 842,275 C 842,183 808,111 740,59 673,6 571,-20 436,-20 361,-20 293,-13 231,2 170,16 119,32 80,50 L 80,111 C 189,58 308,31 436,31 560,31 650,53 705,97 759,140 786,200 786,275 786,328 772,371 742,403 713,435 673,461 624,481 574,501 519,519 459,537 396,556 338,576 286,595 233,615 191,643 161,679 130,716 115,767 115,834 115,919 148,984 215,1032 282,1079 373,1102 487,1102 552,1102 612,1096 668,1085 724,1073 773,1059 815,1041 L 793,990 C 754,1009 708,1024 652,1035 597,1046 542,1051 487,1051 389,1051 312,1033 255,997 198,961 170,906 170,834 170,778 184,735 212,706 240,677 278,654 325,637 372,621 423,604 477,586 537,567 595,547 651,525 707,503 753,473 788,436 824,398 842,345 842,275 Z"
   id="glyph135" />
   <glyph
   unicode="p"
   horiz-adv-x="901"
   d="M 641,1102 C 784,1102 893,1055 967,962 1040,868 1077,732 1077,551 1077,370 1037,229 957,129 878,30 765,-20 621,-20 513,-20 428,5 367,56 305,106 263,167 240,238 L 236,238 C 238,192 240,146 240,102 240,58 240,13 240,-30 L 240,-475 186,-475 186,1082 231,1082 236,824 240,824 C 255,871 279,917 313,959 347,1001 392,1036 446,1062 501,1089 566,1102 641,1102 Z M 641,1051 C 510,1051 410,1006 342,917 274,827 240,703 240,543 L 240,537 C 240,364 274,236 343,154 412,72 505,31 621,31 746,31 844,75 915,162 986,250 1022,379 1022,551 1022,721 990,846 926,928 862,1010 767,1051 641,1051 Z"
   id="glyph137" />
   <glyph
   unicode="n"
   horiz-adv-x="847"
   d="M 633,1102 C 750,1102 841,1070 905,1006 969,942 1001,843 1001,709 L 1001,0 948,0 948,707 C 948,827 921,914 865,969 810,1024 733,1051 633,1051 515,1051 420,1016 347,945 274,875 238,766 238,619 L 238,0 184,0 184,1082 227,1082 236,854 240,854 C 256,897 280,937 312,974 344,1012 387,1042 439,1066 492,1090 556,1102 633,1102 Z"
   id="glyph139" />
   <glyph
   unicode="i"
   horiz-adv-x="133"
   d="M 211,1477 C 236,1477 251,1471 257,1458 263,1445 266,1430 266,1414 266,1396 263,1381 257,1368 251,1356 236,1350 211,1350 190,1350 177,1356 170,1368 163,1381 160,1396 160,1414 160,1430 163,1445 170,1458 177,1471 190,1477 211,1477 Z M 238,1082 L 238,0 184,0 184,1082 238,1082 Z"
   id="glyph141" />
   <glyph
   unicode="U"
   horiz-adv-x="1086"
   d="M 1266,517 C 1266,395 1243,295 1197,216 1151,136 1088,77 1008,38 927,-1 834,-20 727,-20 558,-20 427,26 334,117 241,209 195,343 195,521 L 195,1463 248,1463 248,525 C 248,361 290,238 374,155 458,73 576,31 729,31 875,31 992,70 1080,149 1168,228 1212,345 1212,500 L 1212,1463 1266,1463 1266,517 Z"
   id="glyph143" />
   <glyph
   unicode="T"
   horiz-adv-x="1033"
   d="M 543,-1 L 489,-1 489,1411 4,1411 4,1462 1030,1462 1030,1411 543,1411 543,-1 Z"
   id="glyph145" />
   <glyph
   unicode="S"
   horiz-adv-x="900"
   d="M 1001,369 C 1001,282 979,209 935,151 891,93 831,50 757,22 682,-6 601,-20 512,-20 418,-20 340,-14 280,-1 219,12 164,26 115,39 L 115,99 C 169,80 229,64 294,51 359,38 433,31 516,31 594,31 665,43 730,67 795,91 847,128 887,178 926,227 946,292 946,371 946,439 930,494 897,536 864,578 818,612 757,640 696,668 623,695 539,721 459,747 389,775 328,804 266,834 218,873 183,921 148,970 131,1034 131,1115 131,1196 152,1265 194,1319 235,1374 291,1415 361,1442 432,1470 510,1483 596,1483 660,1483 723,1477 783,1466 844,1454 905,1435 965,1407 L 942,1360 C 879,1388 819,1406 761,1417 703,1427 646,1432 592,1432 520,1432 453,1421 391,1399 330,1377 280,1344 243,1298 205,1252 186,1192 186,1119 186,1045 203,986 238,943 272,899 318,864 376,839 434,814 498,790 567,768 655,741 731,712 796,681 861,651 911,611 947,563 983,514 1001,450 1001,369 Z"
   id="glyph147" />
   <glyph
   unicode="R"
   horiz-adv-x="954"
   d="M 537,1462 C 650,1462 745,1451 822,1428 899,1406 958,1366 997,1310 1037,1254 1057,1176 1057,1075 1057,967 1028,879 970,812 912,744 831,697 727,669 L 1128,-1 1061,-1 670,655 264,655 264,-1 211,-1 211,1462 537,1462 Z M 526,1411 L 264,1411 264,706 598,706 C 717,706 814,738 889,802 964,867 1001,957 1001,1073 1001,1160 984,1229 949,1278 914,1327 862,1361 792,1381 721,1401 633,1411 526,1411 Z"
   id="glyph149" />
   <glyph
   unicode="P"
   horiz-adv-x="874"
   d="M 553,1463 C 715,1463 840,1432 927,1370 1013,1308 1057,1206 1057,1063 1057,958 1035,873 991,808 948,744 886,697 806,668 726,639 632,625 524,625 L 264,625 264,1 211,1 211,1463 553,1463 Z M 545,1412 L 264,1412 264,676 520,676 C 616,676 700,687 772,710 844,733 901,772 941,828 981,884 1001,962 1001,1061 1001,1186 964,1275 890,1330 815,1384 700,1412 545,1412 Z"
   id="glyph151" />
   <glyph
   unicode="O"
   horiz-adv-x="1324"
   d="M 1413,734 C 1413,586 1390,456 1342,342 1295,229 1224,140 1129,76 1035,12 915,-20 770,-20 628,-20 510,12 415,77 320,142 249,231 201,345 153,458 129,588 129,736 129,883 154,1013 205,1126 255,1238 329,1326 427,1390 525,1453 643,1485 782,1485 984,1485 1140,1419 1249,1288 1359,1156 1413,971 1413,734 Z M 184,736 C 184,599 205,478 248,372 290,266 355,183 442,122 530,62 640,31 772,31 906,31 1016,61 1103,120 1190,180 1254,262 1295,368 1337,474 1358,596 1358,734 1358,956 1308,1129 1208,1251 1109,1373 967,1434 782,1434 649,1434 537,1404 449,1344 360,1284 294,1201 250,1096 206,991 184,871 184,736 Z"
   id="glyph153" />
   <glyph
   unicode="I"
   horiz-adv-x="371"
   d="M 457,0 L 125,0 125,41 264,47 264,1413 125,1422 125,1463 457,1463 457,1422 317,1413 317,47 457,41 457,0 Z"
   id="glyph155" />
   <glyph
   unicode="G"
   horiz-adv-x="1218"
   d="M 752,717 L 1309,717 1309,74 C 1243,43 1171,19 1093,4 1014,-12 935,-20 854,-20 618,-20 438,45 314,175 191,304 129,489 129,727 129,872 159,1002 218,1116 278,1230 363,1320 473,1387 584,1454 715,1487 868,1487 946,1487 1020,1480 1091,1466 1161,1451 1228,1428 1292,1397 L 1268,1346 C 1198,1380 1130,1404 1064,1417 998,1430 932,1436 866,1436 726,1436 604,1405 502,1344 399,1282 321,1198 266,1092 212,985 184,865 184,730 184,564 212,431 267,328 323,226 401,151 502,103 603,55 722,31 858,31 937,31 1010,38 1076,51 1142,64 1202,81 1255,103 L 1255,666 752,666 752,717 Z"
   id="glyph157" />
   <glyph
   unicode="C"
   horiz-adv-x="1086"
   d="M 829,1432 C 693,1432 577,1402 480,1342 384,1282 311,1200 260,1095 210,991 184,872 184,738 184,597 207,474 252,367 297,261 365,178 455,119 545,61 657,31 791,31 870,31 940,37 1001,48 1063,59 1118,73 1167,91 L 1167,43 C 1122,26 1068,11 1006,-2 943,-14 871,-20 791,-20 646,-20 524,12 426,75 328,139 254,227 204,340 154,454 129,586 129,738 129,880 157,1007 213,1120 269,1232 349,1321 454,1386 558,1451 683,1483 829,1483 962,1483 1083,1458 1194,1407 L 1174,1356 C 1115,1388 1057,1408 999,1418 942,1427 885,1432 829,1432 Z"
   id="glyph159" />
   <glyph
   unicode="A"
   horiz-adv-x="1192"
   d="M 1124,0 L 911,555 276,555 57,0 0,0 578,1467 629,1467 1182,0 1124,0 Z M 666,1217 C 657,1240 648,1266 637,1295 626,1325 614,1359 600,1397 591,1367 580,1336 567,1304 555,1272 543,1242 532,1215 L 295,606 891,606 666,1217 Z"
   id="glyph161" />
   <glyph
   unicode=":"
   horiz-adv-x="133"
   d="M 174,1027 C 174,1043 177,1058 184,1071 191,1084 205,1090 225,1090 250,1090 265,1084 271,1071 278,1058 281,1043 281,1027 281,1009 278,994 271,981 265,969 250,963 225,963 205,963 191,969 184,981 177,994 174,1009 174,1027 Z M 174,48 C 174,64 177,79 184,92 191,105 205,111 225,111 250,111 265,105 271,92 278,79 281,64 281,48 281,30 278,15 271,2 265,-10 250,-16 225,-16 205,-16 191,-10 184,2 177,15 174,30 174,48 Z"
   id="glyph163" />
   <glyph
   unicode="4"
   horiz-adv-x="1139"
   d="M 1147,397 L 872,397 872,-1 819,-1 819,397 51,397 51,434 815,1471 872,1471 872,448 1147,448 1147,397 Z M 819,1073 C 819,1132 819,1179 819,1215 819,1252 820,1284 820,1312 821,1340 821,1371 821,1405 L 817,1405 C 794,1368 774,1337 758,1313 741,1288 717,1255 686,1212 L 123,448 819,448 819,1073 Z"
   id="glyph165" />
   <glyph
   unicode="2"
   horiz-adv-x="900"
   d="M 1006,0 L 121,0 121,47 580,533 C 646,602 702,666 747,724 791,782 825,841 848,901 871,961 883,1029 883,1104 883,1206 853,1287 795,1345 736,1403 654,1432 549,1432 490,1432 430,1421 369,1399 307,1377 249,1344 195,1301 L 164,1342 C 227,1394 292,1430 359,1451 427,1472 490,1483 549,1483 627,1483 695,1467 754,1435 812,1403 858,1358 890,1301 922,1245 938,1179 938,1104 938,1021 925,948 900,884 875,820 839,758 792,697 744,637 687,572 621,503 L 195,51 195,51 1006,51 1006,0 Z"
   id="glyph167" />
   <glyph
   unicode="0"
   horiz-adv-x="953"
   d="M 1038,738 C 1038,233 887,-20 584,-20 439,-20 327,42 247,166 167,291 127,481 127,738 127,880 142,1007 171,1120 200,1232 249,1321 316,1387 384,1452 474,1485 586,1485 702,1485 793,1453 858,1390 924,1326 970,1238 997,1126 1025,1013 1038,884 1038,738 Z M 182,738 C 182,497 216,320 284,204 351,89 451,31 584,31 724,31 826,89 889,205 952,321 983,499 983,738 983,877 972,999 949,1103 927,1208 887,1289 829,1347 772,1405 691,1434 586,1434 483,1434 403,1404 344,1344 285,1284 244,1202 219,1097 195,993 182,873 182,738 Z"
   id="glyph169" />
   <glyph
   unicode=","
   horiz-adv-x="213"
   d="M 256,213 C 241,138 222,58 200,-28 177,-114 152,-193 123,-264 L 78,-264 C 108,-164 132,-75 150,3 167,82 182,160 193,238 L 250,238 256,213 Z"
   id="glyph171" />
   <glyph
   unicode=" "
   horiz-adv-x="529"
   id="glyph173" />
  </font><font
   id="EmbeddedFont_5"
   horiz-adv-x="2048"
   horiz-origin-x="0"
   horiz-origin-y="0"
   vert-origin-x="512"
   vert-origin-y="768"
   vert-adv-y="1024">
   <font-face
   font-family="LucidaGrande-Bold embedded"
   units-per-em="2048"
   font-weight="normal"
   font-style="normal"
   ascent="2170"
   descent="609"
   id="font-face178" />
   <missing-glyph
   horiz-adv-x="2048"
   d="M 0,0 L 2047,0 2047,2047 0,2047 0,0 Z"
   id="missing-glyph180" />
   <glyph
   unicode="w"
   horiz-adv-x="1351"
   d="M 778,795 C 767,830 757,862 749,890 740,918 730,950 719,987 L 715,987 C 696,919 676,855 655,795 L 391,-2 346,-2 33,1080 92,1080 307,320 C 325,257 338,210 346,178 354,147 362,115 369,84 L 373,84 C 381,115 389,147 398,178 407,210 422,257 442,320 L 698,1080 741,1080 985,322 C 1016,222 1040,143 1055,84 L 1059,84 C 1063,115 1069,148 1078,181 1087,215 1099,261 1114,320 L 1317,1080 1370,1080 1081,-2 1036,-2 778,795 Z"
   id="glyph182" />
   <glyph
   unicode="r"
   horiz-adv-x="557"
   d="M 569,1098 C 602,1098 632,1096 658,1092 685,1088 711,1083 735,1076 L 723,1027 C 697,1033 673,1038 650,1042 628,1045 601,1047 569,1047 456,1047 373,1007 319,928 266,849 240,743 240,609 L 240,1 186,1 186,1082 236,1082 240,875 244,875 C 263,938 300,991 355,1034 411,1077 482,1098 569,1098 Z"
   id="glyph184" />
   <glyph
   unicode="o"
   horiz-adv-x="953"
   d="M 1055,541 C 1055,436 1038,341 1005,255 971,170 920,103 851,54 782,5 694,-20 586,-20 482,-20 396,5 327,54 258,103 206,170 172,254 138,339 121,435 121,541 121,713 163,850 247,951 331,1052 448,1102 598,1102 707,1102 795,1077 862,1027 929,978 978,910 1009,826 1039,741 1055,646 1055,541 Z M 176,541 C 176,441 191,353 221,276 251,199 297,139 357,96 418,53 494,31 586,31 681,31 759,53 820,97 881,140 926,201 955,278 985,355 999,443 999,541 999,635 986,721 959,798 933,875 890,937 831,982 773,1028 695,1051 598,1051 463,1051 359,1006 286,916 213,826 176,701 176,541 Z"
   id="glyph186" />
   <glyph
   unicode="n"
   horiz-adv-x="847"
   d="M 633,1102 C 750,1102 841,1070 905,1006 969,942 1001,843 1001,709 L 1001,0 948,0 948,707 C 948,827 921,914 865,969 810,1024 733,1051 633,1051 515,1051 420,1016 347,945 274,875 238,766 238,619 L 238,0 184,0 184,1082 227,1082 236,854 240,854 C 256,897 280,937 312,974 344,1012 387,1042 439,1066 492,1090 556,1102 633,1102 Z"
   id="glyph188" />
   <glyph
   unicode="i"
   horiz-adv-x="133"
   d="M 211,1477 C 236,1477 251,1471 257,1458 263,1445 266,1430 266,1414 266,1396 263,1381 257,1368 251,1356 236,1350 211,1350 190,1350 177,1356 170,1368 163,1381 160,1396 160,1414 160,1430 163,1445 170,1458 177,1471 190,1477 211,1477 Z M 238,1082 L 238,0 184,0 184,1082 238,1082 Z"
   id="glyph190" />
   <glyph
   unicode="e"
   horiz-adv-x="874"
   d="M 588,1102 C 681,1102 756,1080 813,1035 870,990 913,929 940,853 967,778 981,692 981,596 L 981,545 176,545 C 175,380 211,253 285,164 358,76 466,31 606,31 672,31 728,36 775,46 822,55 877,74 940,103 L 940,48 C 888,24 836,7 783,-4 731,-15 672,-20 606,-20 493,-20 400,4 329,52 257,99 204,165 171,248 138,332 121,426 121,531 121,633 138,728 172,814 206,901 258,971 327,1023 396,1076 483,1102 588,1102 Z M 588,1051 C 473,1051 379,1012 306,935 233,858 190,745 178,596 L 926,596 C 927,731 900,841 844,925 788,1009 702,1051 588,1051 Z"
   id="glyph192" />
   <glyph
   unicode="U"
   horiz-adv-x="1086"
   d="M 1266,517 C 1266,395 1243,295 1197,216 1151,136 1088,77 1008,38 927,-1 834,-20 727,-20 558,-20 427,26 334,117 241,209 195,343 195,521 L 195,1463 248,1463 248,525 C 248,361 290,238 374,155 458,73 576,31 729,31 875,31 992,70 1080,149 1168,228 1212,345 1212,500 L 1212,1463 1266,1463 1266,517 Z"
   id="glyph194" />
   <glyph
   unicode="S"
   horiz-adv-x="900"
   d="M 1001,369 C 1001,282 979,209 935,151 891,93 831,50 757,22 682,-6 601,-20 512,-20 418,-20 340,-14 280,-1 219,12 164,26 115,39 L 115,99 C 169,80 229,64 294,51 359,38 433,31 516,31 594,31 665,43 730,67 795,91 847,128 887,178 926,227 946,292 946,371 946,439 930,494 897,536 864,578 818,612 757,640 696,668 623,695 539,721 459,747 389,775 328,804 266,834 218,873 183,921 148,970 131,1034 131,1115 131,1196 152,1265 194,1319 235,1374 291,1415 361,1442 432,1470 510,1483 596,1483 660,1483 723,1477 783,1466 844,1454 905,1435 965,1407 L 942,1360 C 879,1388 819,1406 761,1417 703,1427 646,1432 592,1432 520,1432 453,1421 391,1399 330,1377 280,1344 243,1298 205,1252 186,1192 186,1119 186,1045 203,986 238,943 272,899 318,864 376,839 434,814 498,790 567,768 655,741 731,712 796,681 861,651 911,611 947,563 983,514 1001,450 1001,369 Z"
   id="glyph196" />
   <glyph
   unicode="P"
   horiz-adv-x="874"
   d="M 553,1463 C 715,1463 840,1432 927,1370 1013,1308 1057,1206 1057,1063 1057,958 1035,873 991,808 948,744 886,697 806,668 726,639 632,625 524,625 L 264,625 264,1 211,1 211,1463 553,1463 Z M 545,1412 L 264,1412 264,676 520,676 C 616,676 700,687 772,710 844,733 901,772 941,828 981,884 1001,962 1001,1061 1001,1186 964,1275 890,1330 815,1384 700,1412 545,1412 Z"
   id="glyph198" />
   <glyph
   unicode="B"
   horiz-adv-x="954"
   d="M 602,1462 C 781,1462 909,1433 987,1374 1065,1316 1104,1228 1104,1110 1104,1027 1079,954 1030,891 981,828 909,789 815,772 L 815,768 C 937,751 1021,711 1069,648 1117,586 1141,509 1141,416 1141,316 1118,236 1073,174 1028,113 966,68 888,41 809,14 720,0 621,0 L 211,0 211,1462 602,1462 Z M 621,795 C 906,795 1049,899 1049,1108 1049,1216 1013,1293 941,1340 869,1387 754,1411 596,1411 L 264,1411 264,795 621,795 Z M 264,744 L 264,51 637,51 C 776,51 886,80 966,138 1046,196 1085,288 1085,414 1085,499 1067,565 1029,613 992,660 938,694 867,714 797,734 713,744 614,744 L 264,744 Z"
   id="glyph200" />
   <glyph
   unicode=" "
   horiz-adv-x="529"
   id="glyph202" />
  </font><font
   id="EmbeddedFont_6"
   horiz-adv-x="2048"
   horiz-origin-x="0"
   horiz-origin-y="0"
   vert-origin-x="512"
   vert-origin-y="768"
   vert-adv-y="1024">
   <font-face
   font-family="Noto Sans embedded"
   units-per-em="2048"
   font-weight="normal"
   font-style="normal"
   ascent="2170"
   descent="609"
   id="font-face207" />
   <missing-glyph
   horiz-adv-x="2048"
   d="M 0,0 L 2047,0 2047,2047 0,2047 0,0 Z"
   id="missing-glyph209" />
   <glyph
   unicode="μ"
   horiz-adv-x="953"
   d="M 1102,1098 L 1102,0 956,0 928,148 918,148 C 883,93 839,52 784,23 730,-6 664,-20 588,-20 535,-20 489,-11 451,6 412,23 380,45 352,72 L 344,72 C 347,48 349,15 351,-26 353,-67 354,-116 354,-172 L 354,-491 174,-491 174,1098 354,1098 354,390 C 354,216 436,129 600,129 722,129 806,164 852,232 898,300 922,398 922,527 L 922,1098 1102,1098 Z"
   id="glyph211" />
  </font>
   
   
   
   
   
   
   
   
   
   
   
   
   
   
   
   
   
   
   
   
   
   
   
   
   
   
   
   
   
   
   
   
   
  
  
  
 
    
    
   
    
    
    
    
   
    
    
    
   
    
    
    
    
    
    
    
    
    
    
    
    
    
    
    
    
    
    
    
    
   
    
    
   
    
    
   
    
    
   
    
    
   
    
    
    
    
    
    
   
    
    
   
    
   
    
   
    
    
    
    
    
    
    
    
    
    
    
    
    
    
    
    
    
    
    
    
   
    
    
   
    
    
    
   
    
   
    
    
   
    
    
   
    
   
    
    
    
    
    
    
    
    
    
    
    
    
    
    
    
    
    
    
    
    
    
    
    
    
    
   
    
   
    
   
    
   
    
    
   
    
   
    
    
   
    
    
   
    
    
   
    
    
   
    
    
    
    
    
    
    
    
   
    
    
    
    
    
    
    
    
    
    
    
    
    
    
    
    
    
    
    
    
    
    
    
    
    
    
    
    
   
    
   
    
    
   
     
    
     
    
     
    
     
     
    
     
    
     
     
    
     
     
     
    
     
     
    
     
    
     
     
     
    
     
     
     
    
     
     
     
    
     
     
     
    
     
     
     
    
     
     
     
    
     
     
     
    
     
     
    
     
     
    
     
     
    
     
     
     
    
     
     
     
    
     
     
     
    
     
     
     
    
     
     
     
    
     
     
     
    
     
     
    
     
     
    
     
     
     
    
     
     
     
    
     
     
     
    
     
     
     
    
     
     
    
     
     
    
     
     
     
    
     
     
     
    
     
    
     
     
     
    
     
     
     
    
     
     
     
    
     
     
     
    
     
     
     
    
     
     
     
    
     
     
     
    
     
    
     
     
     
    
     
    
     
     
    
     
     
    
     
    
     
     
     
     
     
     
     
     
     
     
     
     
     
     
     
     
    
     
     
    
     
    
     
     
    
     
     
    
     
     
    
     
     
    
     
     
    
     
     
    
     
    
     
    
     
    
     
     
    
     
     
    
     
     
     
    
     
     
     
    
     
     
    
     
     
    
     
     
     
    
     
     
     
    
     
    
     
    
     
     
    
     
     
    
     
    
     
     
     
    
     
     
     
    
     
    
     
     
     
     
     
     
     
     
     
     
     
     
     
     
     
     
    
     
     
    
     
     
    
     
    
     
     
    
     
     
     
    
     
    
     
     
    
     
     
    
     
     
    
     
     
    
     
     
     
    
     
     
    
     
     
    
     
     
    
     
     
    
     
     
    
     
     
    
     
     
    
     
     
    
     
     
    
     
     
    
     
     
     
    
     
     
     
    
     
     
     
    
     
     
     
    
     
    
     
    
     
     
     
    
     
    
     
     
    
     
     
     
     
     
     
     
     
     
     
     
     
     
     
     
     
    
     
    
     
     
     
    
     
    
     
     
     
    
     
     
    
     
     
     
    
     
     
     
    
     
     
    
     
     
    
     
     
     
    
     
     
     
    
     
    
     
     
    
     
     
    
     
     
    
     
    
     
     
    
     
     
     
     
     
     
     
     
     
     
     
     
     
     
     
     
    
     
    
     
     
     
    
     
     
     
    
     
     
     
    
     
     
    
     
     
    
      
     
      
      
     
      
     
      
     
      
     
      
      
     
      
      
     
      
      
     
      
      
     
      
      
     
      
      
     
      
      
     
      
      
     
      
      
     
      
      
     
      
      
     
      
      
     
      
      
     
      
      
     
      
      
     
      
      
     
      
      
     
      
      
     
      
      
     
      
      
     
      
      
     
      
      
     
      
      
     
      
      
     
      
     
      
      
     
      
      
     
      
      
     
      
      
     
      
      
     
      
      
     
      
      
     
      
      
     
      
      
     
      
      
     
      
      
     
      
      
     
      
      
     
      
      
     
      
     
      
      
     
      
      
     
      
      
     
      
      
     
      
      
     
      
      
     
      
      
     
      
      
     
      
      
     
      
      
     
      
     
      
      
     
      
      
     
      
      
     
      
      
     
      
      
     
      
      
     
      
      
     
      
      
     
      
     
      
      
     
      
      
     
      
      
     
      
      
     
      
      
     
      
      
     
      
      
     
      
      
     
      
      
     
      
     
      
      
     
      
      
     
      
      
     
      
      
     
      
      
     
      
      
     
      
      
     
      
      
     
      
      
     
      
      
     
      
      
     
      
      
     
      
     
      
      
     
      
      
     
      
      
     
      
      
     
      
      
     
      
     
      
     
      
      
     
      
      
     
      
     
      
     
      
      
     
      
      
     
      
      
     
      
      
     
      
      
     
      
      
     
      
      
     
      
      
     
      
      
     
      
      
     
      
      
     
      
     
      
      
     
      
      
     
      
      
     
      
     
      
      
     
      
      
     
      
      
     
      
      
     
      
      
     
      
      
     
      
      
     
      
      
     
      
      
     
      
      
     
      
     
      
      
     
      
      
     
      
      
     
      
     
      
      
     
      
      
     
      
      
     
      
     
      
      
     
      
      
     
      
      
     
      
      
     
      
      
     
      
      
     
      
      
     
      
      
     
      
      
     
      
     
      
      
     
      
      
     
      
      
     
      
      
     
      
      
     
      
      
     
      
     
      
      
     
      
      
     
      
      
     
      
      
     
      
      
     
      
      
     
      
     
      
     
      
     
      
      
     
      
     
      
     
      
      
     
      
     
      
      
     
      
     
      
      
     
      
     
      
      
     
      
     
      
     
      
      
     
      
      
     
      
      
     
      
     
      
     
      
      
     
      
      
     
      
      
     
      
      
     
      
      
     
      
      
     
      
     
      
      
     
      
      
      
     
      
      
     
      
      
     
      
      
     
      
      
     
      
     
      
      
     
      
     
      
      
     
      
      
     
      
      
     
      
     
      
     
      
      
     
      
      
     
      
      
     
      
      
     
      
      
     
      
      
     
      
      
     
      
     
      
      
     
      
      
     
      
     
      
      
     
      
     
       
      
       
      
       
       
      
       
      
       
       
      
       
      
       
      
       
       
      
       
      
       
       
      
       
      
       
       
      
       
      
       
       
      
       
       
      
       
      
       
       
      
       
      
       
      <inkscape:path-effect
   effect="fillet_chamfer"
   id="path-effect118-3"
   is_visible="true"
   lpeversion="1"
   nodesatellites_param="F,0,0,1,0,0.5,0,1 @ F,0,0,1,0,0.5,0,1 @ F,0,0,1,0,0.5,0,1 @ F,0,0,1,0,0.5,0,1 @ F,0,0,1,0,0.5,0,1 @ F,0,0,1,0,0.5,0,1 @ F,0,0,1,0,0.5,0,1 @ F,0,0,1,0,0.5,0,1"
   radius="0"
   unit="px"
   method="auto"
   mode="F"
   chamfer_steps="1"
   flexible="false"
   use_knot_distance="true"
   apply_no_radius="true"
   apply_with_radius="true"
   only_selected="false"
   hide_knots="false" /><inkscape:path-effect
   effect="fillet_chamfer"
   id="path-effect114-5"
   is_visible="true"
   lpeversion="1"
   nodesatellites_param="F,0,0,1,0,0,0,1 @ F,0,0,1,0,0,0,1 @ F,0,0,1,0,0,0,1 @ F,0,0,1,0,0,0,1 @ F,0,0,1,0,0,0,1 @ F,0,0,1,0,0,0,1 @ F,0,0,1,0,0,0,1 @ F,0,0,1,0,0,0,1 @ F,0,0,1,0,0,0,1 @ F,0,0,1,0,0,0,1 @ F,0,0,1,0,0,0,1 @ F,0,0,1,0,0,0,1"
   radius="0"
   unit="px"
   method="auto"
   mode="F"
   chamfer_steps="1"
   flexible="false"
   use_knot_distance="true"
   apply_no_radius="true"
   apply_with_radius="true"
   only_selected="false"
   hide_knots="false" /><inkscape:path-effect
   effect="fillet_chamfer"
   id="path-effect112-6"
   is_visible="true"
   lpeversion="1"
   nodesatellites_param="F,0,0,1,0,0.5,0,1 @ F,0,0,1,0,0.5,0,1 @ F,0,0,1,0,0.5,0,1 @ F,0,0,1,0,0.5,0,1 @ F,0,0,1,0,0.5,0,1 @ F,0,0,1,0,0.5,0,1 @ F,0,0,1,0,0.5,0,1 @ F,0,0,1,0,0.5,0,1"
   radius="0"
   unit="px"
   method="auto"
   mode="F"
   chamfer_steps="1"
   flexible="false"
   use_knot_distance="true"
   apply_no_radius="true"
   apply_with_radius="true"
   only_selected="false"
   hide_knots="false" /><inkscape:path-effect
   effect="fillet_chamfer"
   id="path-effect108-2"
   is_visible="true"
   lpeversion="1"
   nodesatellites_param="F,0,0,1,0,0,0,1 @ F,0,0,1,0,0,0,1 @ F,0,0,1,0,0,0,1 @ F,0,0,1,0,0,0,1 @ F,0,0,1,0,0,0,1 @ F,0,0,1,0,0,0,1 @ F,0,0,1,0,0,0,1 @ F,0,0,1,0,0,0,1 @ F,0,0,1,0,0,0,1 @ F,0,0,1,0,0,0,1 @ F,0,0,1,0,0,0,1 @ F,0,0,1,0,0,0,1"
   radius="0"
   unit="px"
   method="auto"
   mode="F"
   chamfer_steps="1"
   flexible="false"
   use_knot_distance="true"
   apply_no_radius="true"
   apply_with_radius="true"
   only_selected="false"
   hide_knots="false" /><inkscape:path-effect
   effect="fillet_chamfer"
   id="path-effect106-9"
   is_visible="true"
   lpeversion="1"
   nodesatellites_param="F,0,0,1,0,0.5,0,1 @ F,0,0,1,0,0.5,0,1 @ F,0,0,1,0,0.5,0,1 @ F,0,0,1,0,0.5,0,1 @ F,0,0,1,0,0.5,0,1 @ F,0,0,1,0,0.5,0,1 @ F,0,0,1,0,0.5,0,1 @ F,0,0,1,0,0.5,0,1"
   radius="0"
   unit="px"
   method="auto"
   mode="F"
   chamfer_steps="1"
   flexible="false"
   use_knot_distance="true"
   apply_no_radius="true"
   apply_with_radius="true"
   only_selected="false"
   hide_knots="false" /><inkscape:path-effect
   effect="fillet_chamfer"
   id="path-effect102-1"
   is_visible="true"
   lpeversion="1"
   nodesatellites_param="F,0,0,1,0,0,0,1 @ F,0,0,1,0,0,0,1 @ F,0,0,1,0,0,0,1 @ F,0,0,1,0,0,0,1 @ F,0,0,1,0,0,0,1 @ F,0,0,1,0,0,0,1 @ F,0,0,1,0,0,0,1 @ F,0,0,1,0,0,0,1 @ F,0,0,1,0,0,0,1 @ F,0,0,1,0,0,0,1 @ F,0,0,1,0,0,0,1 @ F,0,0,1,0,0,0,1"
   radius="0"
   unit="px"
   method="auto"
   mode="F"
   chamfer_steps="1"
   flexible="false"
   use_knot_distance="true"
   apply_no_radius="true"
   apply_with_radius="true"
   only_selected="false"
   hide_knots="false" /><inkscape:path-effect
   effect="fillet_chamfer"
   id="path-effect100-2"
   is_visible="true"
   lpeversion="1"
   nodesatellites_param="F,0,0,1,0,0.5,0,1 @ F,0,0,1,0,0.5,0,1 @ F,0,0,1,0,0.5,0,1 @ F,0,0,1,0,0.5,0,1 @ F,0,0,1,0,0.5,0,1 @ F,0,0,1,0,0.5,0,1 @ F,0,0,1,0,0.5,0,1 @ F,0,0,1,0,0.5,0,1"
   radius="0"
   unit="px"
   method="auto"
   mode="F"
   chamfer_steps="1"
   flexible="false"
   use_knot_distance="true"
   apply_no_radius="true"
   apply_with_radius="true"
   only_selected="false"
   hide_knots="false" /><inkscape:path-effect
   effect="fillet_chamfer"
   id="path-effect96-7"
   is_visible="true"
   lpeversion="1"
   nodesatellites_param="F,0,0,1,0,0,0,1 @ F,0,0,1,0,0,0,1 @ F,0,0,1,0,0,0,1 @ F,0,0,1,0,0,0,1 @ F,0,0,1,0,0,0,1 @ F,0,0,1,0,0,0,1 @ F,0,0,1,0,0,0,1 @ F,0,0,1,0,0,0,1 @ F,0,0,1,0,0,0,1 @ F,0,0,1,0,0,0,1 @ F,0,0,1,0,0,0,1 @ F,0,0,1,0,0,0,1"
   radius="0"
   unit="px"
   method="auto"
   mode="F"
   chamfer_steps="1"
   flexible="false"
   use_knot_distance="true"
   apply_no_radius="true"
   apply_with_radius="true"
   only_selected="false"
   hide_knots="false" /><inkscape:path-effect
   effect="fillet_chamfer"
   id="path-effect94-09"
   is_visible="true"
   lpeversion="1"
   nodesatellites_param="F,0,0,1,0,0.5,0,1 @ F,0,0,1,0,0.5,0,1 @ F,0,0,1,0,0.5,0,1 @ F,0,0,1,0,0.5,0,1 @ F,0,0,1,0,0.5,0,1 @ F,0,0,1,0,0.5,0,1 @ F,0,0,1,0,0.5,0,1 @ F,0,0,1,0,0.5,0,1"
   radius="0"
   unit="px"
   method="auto"
   mode="F"
   chamfer_steps="1"
   flexible="false"
   use_knot_distance="true"
   apply_no_radius="true"
   apply_with_radius="true"
   only_selected="false"
   hide_knots="false" /><inkscape:path-effect
   effect="fillet_chamfer"
   id="path-effect90-3"
   is_visible="true"
   lpeversion="1"
   nodesatellites_param="F,0,0,1,0,0,0,1 @ F,0,0,1,0,0,0,1 @ F,0,0,1,0,0,0,1 @ F,0,0,1,0,0,0,1 @ F,0,0,1,0,0,0,1 @ F,0,0,1,0,0,0,1 @ F,0,0,1,0,0,0,1 @ F,0,0,1,0,0,0,1 @ F,0,0,1,0,0,0,1 @ F,0,0,1,0,0,0,1 @ F,0,0,1,0,0,0,1 @ F,0,0,1,0,0,0,1"
   radius="0"
   unit="px"
   method="auto"
   mode="F"
   chamfer_steps="1"
   flexible="false"
   use_knot_distance="true"
   apply_no_radius="true"
   apply_with_radius="true"
   only_selected="false"
   hide_knots="false" /><inkscape:path-effect
   effect="fillet_chamfer"
   id="path-effect88-6"
   is_visible="true"
   lpeversion="1"
   nodesatellites_param="F,0,0,1,0,0.5,0,1 @ F,0,0,1,0,0.5,0,1 @ F,0,0,1,0,0.5,0,1 @ F,0,0,1,0,0.5,0,1 @ F,0,0,1,0,0.5,0,1 @ F,0,0,1,0,0.5,0,1 @ F,0,0,1,0,0.5,0,1 @ F,0,0,1,0,0.5,0,1"
   radius="0"
   unit="px"
   method="auto"
   mode="F"
   chamfer_steps="1"
   flexible="false"
   use_knot_distance="true"
   apply_no_radius="true"
   apply_with_radius="true"
   only_selected="false"
   hide_knots="false" /><inkscape:path-effect
   effect="fillet_chamfer"
   id="path-effect84-0"
   is_visible="true"
   lpeversion="1"
   nodesatellites_param="F,0,0,1,0,0,0,1 @ F,0,0,1,0,0,0,1 @ F,0,0,1,0,0,0,1 @ F,0,0,1,0,0,0,1 @ F,0,0,1,0,0,0,1 @ F,0,0,1,0,0,0,1 @ F,0,0,1,0,0,0,1 @ F,0,0,1,0,0,0,1 @ F,0,0,1,0,0,0,1 @ F,0,0,1,0,0,0,1 @ F,0,0,1,0,0,0,1 @ F,0,0,1,0,0,0,1"
   radius="0"
   unit="px"
   method="auto"
   mode="F"
   chamfer_steps="1"
   flexible="false"
   use_knot_distance="true"
   apply_no_radius="true"
   apply_with_radius="true"
   only_selected="false"
   hide_knots="false" /><inkscape:path-effect
   effect="fillet_chamfer"
   id="path-effect82-6"
   is_visible="true"
   lpeversion="1"
   nodesatellites_param="F,0,0,1,0,0.5,0,1 @ F,0,0,1,0,0.5,0,1 @ F,0,0,1,0,0.5,0,1 @ F,0,0,1,0,0.5,0,1 @ F,0,0,1,0,0.5,0,1 @ F,0,0,1,0,0.5,0,1 @ F,0,0,1,0,0.5,0,1 @ F,0,0,1,0,0.5,0,1"
   radius="0"
   unit="px"
   method="auto"
   mode="F"
   chamfer_steps="1"
   flexible="false"
   use_knot_distance="true"
   apply_no_radius="true"
   apply_with_radius="true"
   only_selected="false"
   hide_knots="false" /><inkscape:path-effect
   effect="fillet_chamfer"
   id="path-effect80-2"
   is_visible="true"
   lpeversion="1"
   nodesatellites_param="F,0,0,1,0,0,0,1 @ F,0,0,1,0,0,0,1 @ F,0,0,1,0,0,0,1 @ F,0,0,1,0,0,0,1 @ F,0,0,1,0,0,0,1 @ F,0,0,1,0,0,0,1 @ F,0,0,1,0,0,0,1 @ F,0,0,1,0,0,0,1 @ F,0,0,1,0,0,0,1 @ F,0,0,1,0,0,0,1 @ F,0,0,1,0,0,0,1 @ F,0,0,1,0,0,0,1"
   radius="0"
   unit="px"
   method="auto"
   mode="F"
   chamfer_steps="1"
   flexible="false"
   use_knot_distance="true"
   apply_no_radius="true"
   apply_with_radius="true"
   only_selected="false"
   hide_knots="false" /><inkscape:path-effect
   effect="fillet_chamfer"
   id="path-effect504-6"
   is_visible="true"
   lpeversion="1"
   nodesatellites_param="F,0,0,1,0,0.5,0,1 @ F,0,0,1,0,0.5,0,1 @ F,0,0,1,0,0.5,0,1 @ F,0,0,1,0,0.5,0,1 @ F,0,0,1,0,0.5,0,1 @ F,0,0,1,0,0.5,0,1 @ F,0,0,1,0,0.5,0,1 @ F,0,0,1,0,0.5,0,1"
   radius="0"
   unit="px"
   method="auto"
   mode="F"
   chamfer_steps="1"
   flexible="false"
   use_knot_distance="true"
   apply_no_radius="true"
   apply_with_radius="true"
   only_selected="false"
   hide_knots="false" /><inkscape:path-effect
   effect="fillet_chamfer"
   id="path-effect502-1"
   is_visible="true"
   lpeversion="1"
   nodesatellites_param="F,0,0,1,0,0,0,1 @ F,0,0,1,0,0,0,1 @ F,0,0,1,0,0,0,1 @ F,0,0,1,0,0,0,1 @ F,0,0,1,0,0,0,1 @ F,0,0,1,0,0,0,1 @ F,0,0,1,0,0,0,1 @ F,0,0,1,0,0,0,1 @ F,0,0,1,0,0,0,1 @ F,0,0,1,0,0,0,1 @ F,0,0,1,0,0,0,1 @ F,0,0,1,0,0,0,1"
   radius="0"
   unit="px"
   method="auto"
   mode="F"
   chamfer_steps="1"
   flexible="false"
   use_knot_distance="true"
   apply_no_radius="true"
   apply_with_radius="true"
   only_selected="false"
   hide_knots="false" /><inkscape:path-effect
   effect="fillet_chamfer"
   id="path-effect500-8"
   is_visible="true"
   lpeversion="1"
   nodesatellites_param="F,0,0,1,0,0.5,0,1 @ F,0,0,1,0,0.5,0,1 @ F,0,0,1,0,0.5,0,1 @ F,0,0,1,0,0.5,0,1 @ F,0,0,1,0,0.5,0,1 @ F,0,0,1,0,0.5,0,1 @ F,0,0,1,0,0.5,0,1 @ F,0,0,1,0,0.5,0,1"
   radius="0"
   unit="px"
   method="auto"
   mode="F"
   chamfer_steps="1"
   flexible="false"
   use_knot_distance="true"
   apply_no_radius="true"
   apply_with_radius="true"
   only_selected="false"
   hide_knots="false" /><inkscape:path-effect
   effect="fillet_chamfer"
   id="path-effect498-7"
   is_visible="true"
   lpeversion="1"
   nodesatellites_param="F,0,0,1,0,0,0,1 @ F,0,0,1,0,0,0,1 @ F,0,0,1,0,0,0,1 @ F,0,0,1,0,0,0,1 @ F,0,0,1,0,0,0,1 @ F,0,0,1,0,0,0,1 @ F,0,0,1,0,0,0,1 @ F,0,0,1,0,0,0,1 @ F,0,0,1,0,0,0,1 @ F,0,0,1,0,0,0,1 @ F,0,0,1,0,0,0,1 @ F,0,0,1,0,0,0,1"
   radius="0"
   unit="px"
   method="auto"
   mode="F"
   chamfer_steps="1"
   flexible="false"
   use_knot_distance="true"
   apply_no_radius="true"
   apply_with_radius="true"
   only_selected="false"
   hide_knots="false" /><inkscape:path-effect
   effect="fillet_chamfer"
   id="path-effect496-9"
   is_visible="true"
   lpeversion="1"
   nodesatellites_param="F,0,0,1,0,0.5,0,1 @ F,0,0,1,0,0.5,0,1 @ F,0,0,1,0,0.5,0,1 @ F,0,0,1,0,0.5,0,1 @ F,0,0,1,0,0.5,0,1 @ F,0,0,1,0,0.5,0,1 @ F,0,0,1,0,0.5,0,1 @ F,0,0,1,0,0.5,0,1"
   radius="0"
   unit="px"
   method="auto"
   mode="F"
   chamfer_steps="1"
   flexible="false"
   use_knot_distance="true"
   apply_no_radius="true"
   apply_with_radius="true"
   only_selected="false"
   hide_knots="false" /><inkscape:path-effect
   effect="fillet_chamfer"
   id="path-effect494-2"
   is_visible="true"
   lpeversion="1"
   nodesatellites_param="F,0,0,1,0,0,0,1 @ F,0,0,1,0,0,0,1 @ F,0,0,1,0,0,0,1 @ F,0,0,1,0,0,0,1 @ F,0,0,1,0,0,0,1 @ F,0,0,1,0,0,0,1 @ F,0,0,1,0,0,0,1 @ F,0,0,1,0,0,0,1 @ F,0,0,1,0,0,0,1 @ F,0,0,1,0,0,0,1 @ F,0,0,1,0,0,0,1 @ F,0,0,1,0,0,0,1"
   radius="0"
   unit="px"
   method="auto"
   mode="F"
   chamfer_steps="1"
   flexible="false"
   use_knot_distance="true"
   apply_no_radius="true"
   apply_with_radius="true"
   only_selected="false"
   hide_knots="false" /><inkscape:path-effect
   effect="fillet_chamfer"
   id="path-effect492-0"
   is_visible="true"
   lpeversion="1"
   nodesatellites_param="F,0,0,1,0,0.5,0,1 @ F,0,0,1,0,0.5,0,1 @ F,0,0,1,0,0.5,0,1 @ F,0,0,1,0,0.5,0,1 @ F,0,0,1,0,0.5,0,1 @ F,0,0,1,0,0.5,0,1 @ F,0,0,1,0,0.5,0,1 @ F,0,0,1,0,0.5,0,1"
   radius="0"
   unit="px"
   method="auto"
   mode="F"
   chamfer_steps="1"
   flexible="false"
   use_knot_distance="true"
   apply_no_radius="true"
   apply_with_radius="true"
   only_selected="false"
   hide_knots="false" /><inkscape:path-effect
   effect="fillet_chamfer"
   id="path-effect490-2"
   is_visible="true"
   lpeversion="1"
   nodesatellites_param="F,0,0,1,0,0,0,1 @ F,0,0,1,0,0,0,1 @ F,0,0,1,0,0,0,1 @ F,0,0,1,0,0,0,1 @ F,0,0,1,0,0,0,1 @ F,0,0,1,0,0,0,1 @ F,0,0,1,0,0,0,1 @ F,0,0,1,0,0,0,1 @ F,0,0,1,0,0,0,1 @ F,0,0,1,0,0,0,1 @ F,0,0,1,0,0,0,1 @ F,0,0,1,0,0,0,1"
   radius="0"
   unit="px"
   method="auto"
   mode="F"
   chamfer_steps="1"
   flexible="false"
   use_knot_distance="true"
   apply_no_radius="true"
   apply_with_radius="true"
   only_selected="false"
   hide_knots="false" /><inkscape:path-effect
   effect="fillet_chamfer"
   id="path-effect488-3"
   is_visible="true"
   lpeversion="1"
   nodesatellites_param="F,0,0,1,0,0.5,0,1 @ F,0,0,1,0,0.5,0,1 @ F,0,0,1,0,0.5,0,1 @ F,0,0,1,0,0.5,0,1 @ F,0,0,1,0,0.5,0,1 @ F,0,0,1,0,0.5,0,1 @ F,0,0,1,0,0.5,0,1 @ F,0,0,1,0,0.5,0,1"
   radius="0"
   unit="px"
   method="auto"
   mode="F"
   chamfer_steps="1"
   flexible="false"
   use_knot_distance="true"
   apply_no_radius="true"
   apply_with_radius="true"
   only_selected="false"
   hide_knots="false" /><inkscape:path-effect
   effect="fillet_chamfer"
   id="path-effect486-7"
   is_visible="true"
   lpeversion="1"
   nodesatellites_param="F,0,0,1,0,0,0,1 @ F,0,0,1,0,0,0,1 @ F,0,0,1,0,0,0,1 @ F,0,0,1,0,0,0,1 @ F,0,0,1,0,0,0,1 @ F,0,0,1,0,0,0,1 @ F,0,0,1,0,0,0,1 @ F,0,0,1,0,0,0,1 @ F,0,0,1,0,0,0,1 @ F,0,0,1,0,0,0,1 @ F,0,0,1,0,0,0,1 @ F,0,0,1,0,0,0,1"
   radius="0"
   unit="px"
   method="auto"
   mode="F"
   chamfer_steps="1"
   flexible="false"
   use_knot_distance="true"
   apply_no_radius="true"
   apply_with_radius="true"
   only_selected="false"
   hide_knots="false" /><inkscape:path-effect
   effect="fillet_chamfer"
   id="path-effect484-59"
   is_visible="true"
   lpeversion="1"
   nodesatellites_param="F,0,0,1,0,0.5,0,1 @ F,0,0,1,0,0.5,0,1 @ F,0,0,1,0,0.5,0,1 @ F,0,0,1,0,0.5,0,1 @ F,0,0,1,0,0.5,0,1 @ F,0,0,1,0,0.5,0,1 @ F,0,0,1,0,0.5,0,1 @ F,0,0,1,0,0.5,0,1"
   radius="0"
   unit="px"
   method="auto"
   mode="F"
   chamfer_steps="1"
   flexible="false"
   use_knot_distance="true"
   apply_no_radius="true"
   apply_with_radius="true"
   only_selected="false"
   hide_knots="false" /><inkscape:path-effect
   effect="fillet_chamfer"
   id="path-effect482-2"
   is_visible="true"
   lpeversion="1"
   nodesatellites_param="F,0,0,1,0,0,0,1 @ F,0,0,1,0,0,0,1 @ F,0,0,1,0,0,0,1 @ F,0,0,1,0,0,0,1 @ F,0,0,1,0,0,0,1 @ F,0,0,1,0,0,0,1 @ F,0,0,1,0,0,0,1 @ F,0,0,1,0,0,0,1 @ F,0,0,1,0,0,0,1 @ F,0,0,1,0,0,0,1 @ F,0,0,1,0,0,0,1 @ F,0,0,1,0,0,0,1"
   radius="0"
   unit="px"
   method="auto"
   mode="F"
   chamfer_steps="1"
   flexible="false"
   use_knot_distance="true"
   apply_no_radius="true"
   apply_with_radius="true"
   only_selected="false"
   hide_knots="false" /><inkscape:path-effect
   effect="fillet_chamfer"
   id="path-effect480-2"
   is_visible="true"
   lpeversion="1"
   nodesatellites_param="F,0,0,1,0,0.5,0,1 @ F,0,0,1,0,0.5,0,1 @ F,0,0,1,0,0.5,0,1 @ F,0,0,1,0,0.5,0,1 @ F,0,0,1,0,0.5,0,1 @ F,0,0,1,0,0.5,0,1 @ F,0,0,1,0,0.5,0,1 @ F,0,0,1,0,0.5,0,1"
   radius="0"
   unit="px"
   method="auto"
   mode="F"
   chamfer_steps="1"
   flexible="false"
   use_knot_distance="true"
   apply_no_radius="true"
   apply_with_radius="true"
   only_selected="false"
   hide_knots="false" /><inkscape:path-effect
   effect="fillet_chamfer"
   id="path-effect478-8"
   is_visible="true"
   lpeversion="1"
   nodesatellites_param="F,0,0,1,0,0,0,1 @ F,0,0,1,0,0,0,1 @ F,0,0,1,0,0,0,1 @ F,0,0,1,0,0,0,1 @ F,0,0,1,0,0,0,1 @ F,0,0,1,0,0,0,1 @ F,0,0,1,0,0,0,1 @ F,0,0,1,0,0,0,1 @ F,0,0,1,0,0,0,1 @ F,0,0,1,0,0,0,1 @ F,0,0,1,0,0,0,1 @ F,0,0,1,0,0,0,1"
   radius="0"
   unit="px"
   method="auto"
   mode="F"
   chamfer_steps="1"
   flexible="false"
   use_knot_distance="true"
   apply_no_radius="true"
   apply_with_radius="true"
   only_selected="false"
   hide_knots="false" /><inkscape:path-effect
   effect="fillet_chamfer"
   id="path-effect377-97"
   is_visible="true"
   lpeversion="1"
   nodesatellites_param="F,0,0,1,0,0.5,0,1 @ F,0,0,1,0,0.5,0,1 @ F,0,0,1,0,0.5,0,1 @ F,0,0,1,0,0.5,0,1 @ F,0,0,1,0,0.5,0,1 @ F,0,0,1,0,0.5,0,1 @ F,0,0,1,0,0.5,0,1 @ F,0,0,1,0,0.5,0,1"
   radius="0"
   unit="px"
   method="auto"
   mode="F"
   chamfer_steps="1"
   flexible="false"
   use_knot_distance="true"
   apply_no_radius="true"
   apply_with_radius="true"
   only_selected="false"
   hide_knots="false" /><inkscape:path-effect
   effect="fillet_chamfer"
   id="path-effect375-3"
   is_visible="true"
   lpeversion="1"
   nodesatellites_param="F,0,0,1,0,0,0,1 @ F,0,0,1,0,0,0,1 @ F,0,0,1,0,0,0,1 @ F,0,0,1,0,0,0,1 @ F,0,0,1,0,0,0,1 @ F,0,0,1,0,0,0,1 @ F,0,0,1,0,0,0,1 @ F,0,0,1,0,0,0,1 @ F,0,0,1,0,0,0,1 @ F,0,0,1,0,0,0,1 @ F,0,0,1,0,0,0,1 @ F,0,0,1,0,0,0,1"
   radius="0"
   unit="px"
   method="auto"
   mode="F"
   chamfer_steps="1"
   flexible="false"
   use_knot_distance="true"
   apply_no_radius="true"
   apply_with_radius="true"
   only_selected="false"
   hide_knots="false" /><inkscape:path-effect
   effect="fillet_chamfer"
   id="path-effect373-61"
   is_visible="true"
   lpeversion="1"
   nodesatellites_param="F,0,0,1,0,0.5,0,1 @ F,0,0,1,0,0.5,0,1 @ F,0,0,1,0,0.5,0,1 @ F,0,0,1,0,0.5,0,1 @ F,0,0,1,0,0.5,0,1 @ F,0,0,1,0,0.5,0,1 @ F,0,0,1,0,0.5,0,1 @ F,0,0,1,0,0.5,0,1"
   radius="0"
   unit="px"
   method="auto"
   mode="F"
   chamfer_steps="1"
   flexible="false"
   use_knot_distance="true"
   apply_no_radius="true"
   apply_with_radius="true"
   only_selected="false"
   hide_knots="false" /><inkscape:path-effect
   effect="fillet_chamfer"
   id="path-effect371-2"
   is_visible="true"
   lpeversion="1"
   nodesatellites_param="F,0,0,1,0,0,0,1 @ F,0,0,1,0,0,0,1 @ F,0,0,1,0,0,0,1 @ F,0,0,1,0,0,0,1 @ F,0,0,1,0,0,0,1 @ F,0,0,1,0,0,0,1 @ F,0,0,1,0,0,0,1 @ F,0,0,1,0,0,0,1 @ F,0,0,1,0,0,0,1 @ F,0,0,1,0,0,0,1 @ F,0,0,1,0,0,0,1 @ F,0,0,1,0,0,0,1"
   radius="0"
   unit="px"
   method="auto"
   mode="F"
   chamfer_steps="1"
   flexible="false"
   use_knot_distance="true"
   apply_no_radius="true"
   apply_with_radius="true"
   only_selected="false"
   hide_knots="false" /><inkscape:path-effect
   effect="fillet_chamfer"
   id="path-effect369-9"
   is_visible="true"
   lpeversion="1"
   nodesatellites_param="F,0,0,1,0,0.5,0,1 @ F,0,0,1,0,0.5,0,1 @ F,0,0,1,0,0.5,0,1 @ F,0,0,1,0,0.5,0,1 @ F,0,0,1,0,0.5,0,1 @ F,0,0,1,0,0.5,0,1 @ F,0,0,1,0,0.5,0,1 @ F,0,0,1,0,0.5,0,1"
   radius="0"
   unit="px"
   method="auto"
   mode="F"
   chamfer_steps="1"
   flexible="false"
   use_knot_distance="true"
   apply_no_radius="true"
   apply_with_radius="true"
   only_selected="false"
   hide_knots="false" /><inkscape:path-effect
   effect="fillet_chamfer"
   id="path-effect367-3"
   is_visible="true"
   lpeversion="1"
   nodesatellites_param="F,0,0,1,0,0,0,1 @ F,0,0,1,0,0,0,1 @ F,0,0,1,0,0,0,1 @ F,0,0,1,0,0,0,1 @ F,0,0,1,0,0,0,1 @ F,0,0,1,0,0,0,1 @ F,0,0,1,0,0,0,1 @ F,0,0,1,0,0,0,1 @ F,0,0,1,0,0,0,1 @ F,0,0,1,0,0,0,1 @ F,0,0,1,0,0,0,1 @ F,0,0,1,0,0,0,1"
   radius="0"
   unit="px"
   method="auto"
   mode="F"
   chamfer_steps="1"
   flexible="false"
   use_knot_distance="true"
   apply_no_radius="true"
   apply_with_radius="true"
   only_selected="false"
   hide_knots="false" /><inkscape:path-effect
   effect="fillet_chamfer"
   id="path-effect365-1"
   is_visible="true"
   lpeversion="1"
   nodesatellites_param="F,0,0,1,0,0.5,0,1 @ F,0,0,1,0,0.5,0,1 @ F,0,0,1,0,0.5,0,1 @ F,0,0,1,0,0.5,0,1 @ F,0,0,1,0,0.5,0,1 @ F,0,0,1,0,0.5,0,1 @ F,0,0,1,0,0.5,0,1 @ F,0,0,1,0,0.5,0,1"
   radius="0"
   unit="px"
   method="auto"
   mode="F"
   chamfer_steps="1"
   flexible="false"
   use_knot_distance="true"
   apply_no_radius="true"
   apply_with_radius="true"
   only_selected="false"
   hide_knots="false" /><inkscape:path-effect
   effect="fillet_chamfer"
   id="path-effect363-9"
   is_visible="true"
   lpeversion="1"
   nodesatellites_param="F,0,0,1,0,0,0,1 @ F,0,0,1,0,0,0,1 @ F,0,0,1,0,0,0,1 @ F,0,0,1,0,0,0,1 @ F,0,0,1,0,0,0,1 @ F,0,0,1,0,0,0,1 @ F,0,0,1,0,0,0,1 @ F,0,0,1,0,0,0,1 @ F,0,0,1,0,0,0,1 @ F,0,0,1,0,0,0,1 @ F,0,0,1,0,0,0,1 @ F,0,0,1,0,0,0,1"
   radius="0"
   unit="px"
   method="auto"
   mode="F"
   chamfer_steps="1"
   flexible="false"
   use_knot_distance="true"
   apply_no_radius="true"
   apply_with_radius="true"
   only_selected="false"
   hide_knots="false" /><inkscape:path-effect
   effect="fillet_chamfer"
   id="path-effect361-4"
   is_visible="true"
   lpeversion="1"
   nodesatellites_param="F,0,0,1,0,0.5,0,1 @ F,0,0,1,0,0.5,0,1 @ F,0,0,1,0,0.5,0,1 @ F,0,0,1,0,0.5,0,1 @ F,0,0,1,0,0.5,0,1 @ F,0,0,1,0,0.5,0,1 @ F,0,0,1,0,0.5,0,1 @ F,0,0,1,0,0.5,0,1"
   radius="0"
   unit="px"
   method="auto"
   mode="F"
   chamfer_steps="1"
   flexible="false"
   use_knot_distance="true"
   apply_no_radius="true"
   apply_with_radius="true"
   only_selected="false"
   hide_knots="false" /><inkscape:path-effect
   effect="fillet_chamfer"
   id="path-effect359-7"
   is_visible="true"
   lpeversion="1"
   nodesatellites_param="F,0,0,1,0,0,0,1 @ F,0,0,1,0,0,0,1 @ F,0,0,1,0,0,0,1 @ F,0,0,1,0,0,0,1 @ F,0,0,1,0,0,0,1 @ F,0,0,1,0,0,0,1 @ F,0,0,1,0,0,0,1 @ F,0,0,1,0,0,0,1 @ F,0,0,1,0,0,0,1 @ F,0,0,1,0,0,0,1 @ F,0,0,1,0,0,0,1 @ F,0,0,1,0,0,0,1"
   radius="0"
   unit="px"
   method="auto"
   mode="F"
   chamfer_steps="1"
   flexible="false"
   use_knot_distance="true"
   apply_no_radius="true"
   apply_with_radius="true"
   only_selected="false"
   hide_knots="false" /><inkscape:path-effect
   effect="fillet_chamfer"
   id="path-effect357-8"
   is_visible="true"
   lpeversion="1"
   nodesatellites_param="F,0,0,1,0,0.5,0,1 @ F,0,0,1,0,0.5,0,1 @ F,0,0,1,0,0.5,0,1 @ F,0,0,1,0,0.5,0,1 @ F,0,0,1,0,0.5,0,1 @ F,0,0,1,0,0.5,0,1 @ F,0,0,1,0,0.5,0,1 @ F,0,0,1,0,0.5,0,1"
   radius="0"
   unit="px"
   method="auto"
   mode="F"
   chamfer_steps="1"
   flexible="false"
   use_knot_distance="true"
   apply_no_radius="true"
   apply_with_radius="true"
   only_selected="false"
   hide_knots="false" /><inkscape:path-effect
   effect="fillet_chamfer"
   id="path-effect355-4"
   is_visible="true"
   lpeversion="1"
   nodesatellites_param="F,0,0,1,0,0,0,1 @ F,0,0,1,0,0,0,1 @ F,0,0,1,0,0,0,1 @ F,0,0,1,0,0,0,1 @ F,0,0,1,0,0,0,1 @ F,0,0,1,0,0,0,1 @ F,0,0,1,0,0,0,1 @ F,0,0,1,0,0,0,1 @ F,0,0,1,0,0,0,1 @ F,0,0,1,0,0,0,1 @ F,0,0,1,0,0,0,1 @ F,0,0,1,0,0,0,1"
   radius="0"
   unit="px"
   method="auto"
   mode="F"
   chamfer_steps="1"
   flexible="false"
   use_knot_distance="true"
   apply_no_radius="true"
   apply_with_radius="true"
   only_selected="false"
   hide_knots="false" /><inkscape:path-effect
   effect="fillet_chamfer"
   id="path-effect353-5"
   is_visible="true"
   lpeversion="1"
   nodesatellites_param="F,0,0,1,0,0.5,0,1 @ F,0,0,1,0,0.5,0,1 @ F,0,0,1,0,0.5,0,1 @ F,0,0,1,0,0.5,0,1 @ F,0,0,1,0,0.5,0,1 @ F,0,0,1,0,0.5,0,1 @ F,0,0,1,0,0.5,0,1 @ F,0,0,1,0,0.5,0,1"
   radius="0"
   unit="px"
   method="auto"
   mode="F"
   chamfer_steps="1"
   flexible="false"
   use_knot_distance="true"
   apply_no_radius="true"
   apply_with_radius="true"
   only_selected="false"
   hide_knots="false" /><inkscape:path-effect
   effect="fillet_chamfer"
   id="path-effect351-0"
   is_visible="true"
   lpeversion="1"
   nodesatellites_param="F,0,0,1,0,0,0,1 @ F,0,0,1,0,0,0,1 @ F,0,0,1,0,0,0,1 @ F,0,0,1,0,0,0,1 @ F,0,0,1,0,0,0,1 @ F,0,0,1,0,0,0,1 @ F,0,0,1,0,0,0,1 @ F,0,0,1,0,0,0,1 @ F,0,0,1,0,0,0,1 @ F,0,0,1,0,0,0,1 @ F,0,0,1,0,0,0,1 @ F,0,0,1,0,0,0,1"
   radius="0"
   unit="px"
   method="auto"
   mode="F"
   chamfer_steps="1"
   flexible="false"
   use_knot_distance="true"
   apply_no_radius="true"
   apply_with_radius="true"
   only_selected="false"
   hide_knots="false" /><inkscape:path-effect
   effect="fillet_chamfer"
   id="path-effect315-3"
   is_visible="true"
   lpeversion="1"
   nodesatellites_param="F,0,0,1,0,0.5,0,1 @ F,0,0,1,0,0.5,0,1 @ F,0,0,1,0,0.5,0,1 @ F,0,0,1,0,0.5,0,1 @ F,0,0,1,0,0.5,0,1 @ F,0,0,1,0,0.5,0,1 @ F,0,0,1,0,0.5,0,1 @ F,0,0,1,0,0.5,0,1"
   radius="0"
   unit="px"
   method="auto"
   mode="F"
   chamfer_steps="1"
   flexible="false"
   use_knot_distance="true"
   apply_no_radius="true"
   apply_with_radius="true"
   only_selected="false"
   hide_knots="false" /><inkscape:path-effect
   effect="fillet_chamfer"
   id="path-effect313-6"
   is_visible="true"
   lpeversion="1"
   nodesatellites_param="F,0,0,1,0,0,0,1 @ F,0,0,1,0,0,0,1 @ F,0,0,1,0,0,0,1 @ F,0,0,1,0,0,0,1 @ F,0,0,1,0,0,0,1 @ F,0,0,1,0,0,0,1 @ F,0,0,1,0,0,0,1 @ F,0,0,1,0,0,0,1 @ F,0,0,1,0,0,0,1 @ F,0,0,1,0,0,0,1 @ F,0,0,1,0,0,0,1 @ F,0,0,1,0,0,0,1"
   radius="0"
   unit="px"
   method="auto"
   mode="F"
   chamfer_steps="1"
   flexible="false"
   use_knot_distance="true"
   apply_no_radius="true"
   apply_with_radius="true"
   only_selected="false"
   hide_knots="false" /><inkscape:path-effect
   effect="fillet_chamfer"
   id="path-effect311-1"
   is_visible="true"
   lpeversion="1"
   nodesatellites_param="F,0,0,1,0,0.5,0,1 @ F,0,0,1,0,0.5,0,1 @ F,0,0,1,0,0.5,0,1 @ F,0,0,1,0,0.5,0,1 @ F,0,0,1,0,0.5,0,1 @ F,0,0,1,0,0.5,0,1 @ F,0,0,1,0,0.5,0,1 @ F,0,0,1,0,0.5,0,1"
   radius="0"
   unit="px"
   method="auto"
   mode="F"
   chamfer_steps="1"
   flexible="false"
   use_knot_distance="true"
   apply_no_radius="true"
   apply_with_radius="true"
   only_selected="false"
   hide_knots="false" /><inkscape:path-effect
   effect="fillet_chamfer"
   id="path-effect309-0"
   is_visible="true"
   lpeversion="1"
   nodesatellites_param="F,0,0,1,0,0,0,1 @ F,0,0,1,0,0,0,1 @ F,0,0,1,0,0,0,1 @ F,0,0,1,0,0,0,1 @ F,0,0,1,0,0,0,1 @ F,0,0,1,0,0,0,1 @ F,0,0,1,0,0,0,1 @ F,0,0,1,0,0,0,1 @ F,0,0,1,0,0,0,1 @ F,0,0,1,0,0,0,1 @ F,0,0,1,0,0,0,1 @ F,0,0,1,0,0,0,1"
   radius="0"
   unit="px"
   method="auto"
   mode="F"
   chamfer_steps="1"
   flexible="false"
   use_knot_distance="true"
   apply_no_radius="true"
   apply_with_radius="true"
   only_selected="false"
   hide_knots="false" /><inkscape:path-effect
   effect="fillet_chamfer"
   id="path-effect307-6"
   is_visible="true"
   lpeversion="1"
   nodesatellites_param="F,0,0,1,0,0.5,0,1 @ F,0,0,1,0,0.5,0,1 @ F,0,0,1,0,0.5,0,1 @ F,0,0,1,0,0.5,0,1 @ F,0,0,1,0,0.5,0,1 @ F,0,0,1,0,0.5,0,1 @ F,0,0,1,0,0.5,0,1 @ F,0,0,1,0,0.5,0,1"
   radius="0"
   unit="px"
   method="auto"
   mode="F"
   chamfer_steps="1"
   flexible="false"
   use_knot_distance="true"
   apply_no_radius="true"
   apply_with_radius="true"
   only_selected="false"
   hide_knots="false" /><inkscape:path-effect
   effect="fillet_chamfer"
   id="path-effect305-3"
   is_visible="true"
   lpeversion="1"
   nodesatellites_param="F,0,0,1,0,0,0,1 @ F,0,0,1,0,0,0,1 @ F,0,0,1,0,0,0,1 @ F,0,0,1,0,0,0,1 @ F,0,0,1,0,0,0,1 @ F,0,0,1,0,0,0,1 @ F,0,0,1,0,0,0,1 @ F,0,0,1,0,0,0,1 @ F,0,0,1,0,0,0,1 @ F,0,0,1,0,0,0,1 @ F,0,0,1,0,0,0,1 @ F,0,0,1,0,0,0,1"
   radius="0"
   unit="px"
   method="auto"
   mode="F"
   chamfer_steps="1"
   flexible="false"
   use_knot_distance="true"
   apply_no_radius="true"
   apply_with_radius="true"
   only_selected="false"
   hide_knots="false" /><inkscape:path-effect
   effect="fillet_chamfer"
   id="path-effect303-20"
   is_visible="true"
   lpeversion="1"
   nodesatellites_param="F,0,0,1,0,0.5,0,1 @ F,0,0,1,0,0.5,0,1 @ F,0,0,1,0,0.5,0,1 @ F,0,0,1,0,0.5,0,1 @ F,0,0,1,0,0.5,0,1 @ F,0,0,1,0,0.5,0,1 @ F,0,0,1,0,0.5,0,1 @ F,0,0,1,0,0.5,0,1"
   radius="0"
   unit="px"
   method="auto"
   mode="F"
   chamfer_steps="1"
   flexible="false"
   use_knot_distance="true"
   apply_no_radius="true"
   apply_with_radius="true"
   only_selected="false"
   hide_knots="false" /><inkscape:path-effect
   effect="fillet_chamfer"
   id="path-effect301-6"
   is_visible="true"
   lpeversion="1"
   nodesatellites_param="F,0,0,1,0,0,0,1 @ F,0,0,1,0,0,0,1 @ F,0,0,1,0,0,0,1 @ F,0,0,1,0,0,0,1 @ F,0,0,1,0,0,0,1 @ F,0,0,1,0,0,0,1 @ F,0,0,1,0,0,0,1 @ F,0,0,1,0,0,0,1 @ F,0,0,1,0,0,0,1 @ F,0,0,1,0,0,0,1 @ F,0,0,1,0,0,0,1 @ F,0,0,1,0,0,0,1"
   radius="0"
   unit="px"
   method="auto"
   mode="F"
   chamfer_steps="1"
   flexible="false"
   use_knot_distance="true"
   apply_no_radius="true"
   apply_with_radius="true"
   only_selected="false"
   hide_knots="false" /><inkscape:path-effect
   effect="fillet_chamfer"
   id="path-effect299-1"
   is_visible="true"
   lpeversion="1"
   nodesatellites_param="F,0,0,1,0,0.5,0,1 @ F,0,0,1,0,0.5,0,1 @ F,0,0,1,0,0.5,0,1 @ F,0,0,1,0,0.5,0,1 @ F,0,0,1,0,0.5,0,1 @ F,0,0,1,0,0.5,0,1 @ F,0,0,1,0,0.5,0,1 @ F,0,0,1,0,0.5,0,1"
   radius="0"
   unit="px"
   method="auto"
   mode="F"
   chamfer_steps="1"
   flexible="false"
   use_knot_distance="true"
   apply_no_radius="true"
   apply_with_radius="true"
   only_selected="false"
   hide_knots="false" /><inkscape:path-effect
   effect="fillet_chamfer"
   id="path-effect297-55"
   is_visible="true"
   lpeversion="1"
   nodesatellites_param="F,0,0,1,0,0,0,1 @ F,0,0,1,0,0,0,1 @ F,0,0,1,0,0,0,1 @ F,0,0,1,0,0,0,1 @ F,0,0,1,0,0,0,1 @ F,0,0,1,0,0,0,1 @ F,0,0,1,0,0,0,1 @ F,0,0,1,0,0,0,1 @ F,0,0,1,0,0,0,1 @ F,0,0,1,0,0,0,1 @ F,0,0,1,0,0,0,1 @ F,0,0,1,0,0,0,1"
   radius="0"
   unit="px"
   method="auto"
   mode="F"
   chamfer_steps="1"
   flexible="false"
   use_knot_distance="true"
   apply_no_radius="true"
   apply_with_radius="true"
   only_selected="false"
   hide_knots="false" /><inkscape:path-effect
   effect="fillet_chamfer"
   id="path-effect295-4"
   is_visible="true"
   lpeversion="1"
   nodesatellites_param="F,0,0,1,0,0.5,0,1 @ F,0,0,1,0,0.5,0,1 @ F,0,0,1,0,0.5,0,1 @ F,0,0,1,0,0.5,0,1 @ F,0,0,1,0,0.5,0,1 @ F,0,0,1,0,0.5,0,1 @ F,0,0,1,0,0.5,0,1 @ F,0,0,1,0,0.5,0,1"
   radius="0"
   unit="px"
   method="auto"
   mode="F"
   chamfer_steps="1"
   flexible="false"
   use_knot_distance="true"
   apply_no_radius="true"
   apply_with_radius="true"
   only_selected="false"
   hide_knots="false" /><inkscape:path-effect
   effect="fillet_chamfer"
   id="path-effect293-7"
   is_visible="true"
   lpeversion="1"
   nodesatellites_param="F,0,0,1,0,0,0,1 @ F,0,0,1,0,0,0,1 @ F,0,0,1,0,0,0,1 @ F,0,0,1,0,0,0,1 @ F,0,0,1,0,0,0,1 @ F,0,0,1,0,0,0,1 @ F,0,0,1,0,0,0,1 @ F,0,0,1,0,0,0,1 @ F,0,0,1,0,0,0,1 @ F,0,0,1,0,0,0,1 @ F,0,0,1,0,0,0,1 @ F,0,0,1,0,0,0,1"
   radius="0"
   unit="px"
   method="auto"
   mode="F"
   chamfer_steps="1"
   flexible="false"
   use_knot_distance="true"
   apply_no_radius="true"
   apply_with_radius="true"
   only_selected="false"
   hide_knots="false" /><inkscape:path-effect
   effect="fillet_chamfer"
   id="path-effect291-6"
   is_visible="true"
   lpeversion="1"
   nodesatellites_param="F,0,0,1,0,0.5,0,1 @ F,0,0,1,0,0.5,0,1 @ F,0,0,1,0,0.5,0,1 @ F,0,0,1,0,0.5,0,1 @ F,0,0,1,0,0.5,0,1 @ F,0,0,1,0,0.5,0,1 @ F,0,0,1,0,0.5,0,1 @ F,0,0,1,0,0.5,0,1"
   radius="0"
   unit="px"
   method="auto"
   mode="F"
   chamfer_steps="1"
   flexible="false"
   use_knot_distance="true"
   apply_no_radius="true"
   apply_with_radius="true"
   only_selected="false"
   hide_knots="false" /><inkscape:path-effect
   effect="fillet_chamfer"
   id="path-effect289-5"
   is_visible="true"
   lpeversion="1"
   nodesatellites_param="F,0,0,1,0,0,0,1 @ F,0,0,1,0,0,0,1 @ F,0,0,1,0,0,0,1 @ F,0,0,1,0,0,0,1 @ F,0,0,1,0,0,0,1 @ F,0,0,1,0,0,0,1 @ F,0,0,1,0,0,0,1 @ F,0,0,1,0,0,0,1 @ F,0,0,1,0,0,0,1 @ F,0,0,1,0,0,0,1 @ F,0,0,1,0,0,0,1 @ F,0,0,1,0,0,0,1"
   radius="0"
   unit="px"
   method="auto"
   mode="F"
   chamfer_steps="1"
   flexible="false"
   use_knot_distance="true"
   apply_no_radius="true"
   apply_with_radius="true"
   only_selected="false"
   hide_knots="false" /><inkscape:path-effect
   effect="fillet_chamfer"
   id="path-effect253-6"
   is_visible="true"
   lpeversion="1"
   nodesatellites_param="F,0,0,1,0,0.5,0,1 @ F,0,0,1,0,0.5,0,1 @ F,0,0,1,0,0.5,0,1 @ F,0,0,1,0,0.5,0,1 @ F,0,0,1,0,0.5,0,1 @ F,0,0,1,0,0.5,0,1 @ F,0,0,1,0,0.5,0,1 @ F,0,0,1,0,0.5,0,1"
   radius="0"
   unit="px"
   method="auto"
   mode="F"
   chamfer_steps="1"
   flexible="false"
   use_knot_distance="true"
   apply_no_radius="true"
   apply_with_radius="true"
   only_selected="false"
   hide_knots="false" /><inkscape:path-effect
   effect="fillet_chamfer"
   id="path-effect251-9"
   is_visible="true"
   lpeversion="1"
   nodesatellites_param="F,0,0,1,0,0,0,1 @ F,0,0,1,0,0,0,1 @ F,0,0,1,0,0,0,1 @ F,0,0,1,0,0,0,1 @ F,0,0,1,0,0,0,1 @ F,0,0,1,0,0,0,1 @ F,0,0,1,0,0,0,1 @ F,0,0,1,0,0,0,1 @ F,0,0,1,0,0,0,1 @ F,0,0,1,0,0,0,1 @ F,0,0,1,0,0,0,1 @ F,0,0,1,0,0,0,1"
   radius="0"
   unit="px"
   method="auto"
   mode="F"
   chamfer_steps="1"
   flexible="false"
   use_knot_distance="true"
   apply_no_radius="true"
   apply_with_radius="true"
   only_selected="false"
   hide_knots="false" /><inkscape:path-effect
   effect="fillet_chamfer"
   id="path-effect249-3"
   is_visible="true"
   lpeversion="1"
   nodesatellites_param="F,0,0,1,0,0.5,0,1 @ F,0,0,1,0,0.5,0,1 @ F,0,0,1,0,0.5,0,1 @ F,0,0,1,0,0.5,0,1 @ F,0,0,1,0,0.5,0,1 @ F,0,0,1,0,0.5,0,1 @ F,0,0,1,0,0.5,0,1 @ F,0,0,1,0,0.5,0,1"
   radius="0"
   unit="px"
   method="auto"
   mode="F"
   chamfer_steps="1"
   flexible="false"
   use_knot_distance="true"
   apply_no_radius="true"
   apply_with_radius="true"
   only_selected="false"
   hide_knots="false" /><inkscape:path-effect
   effect="fillet_chamfer"
   id="path-effect247-7"
   is_visible="true"
   lpeversion="1"
   nodesatellites_param="F,0,0,1,0,0,0,1 @ F,0,0,1,0,0,0,1 @ F,0,0,1,0,0,0,1 @ F,0,0,1,0,0,0,1 @ F,0,0,1,0,0,0,1 @ F,0,0,1,0,0,0,1 @ F,0,0,1,0,0,0,1 @ F,0,0,1,0,0,0,1 @ F,0,0,1,0,0,0,1 @ F,0,0,1,0,0,0,1 @ F,0,0,1,0,0,0,1 @ F,0,0,1,0,0,0,1"
   radius="0"
   unit="px"
   method="auto"
   mode="F"
   chamfer_steps="1"
   flexible="false"
   use_knot_distance="true"
   apply_no_radius="true"
   apply_with_radius="true"
   only_selected="false"
   hide_knots="false" /><inkscape:path-effect
   effect="fillet_chamfer"
   id="path-effect245-4"
   is_visible="true"
   lpeversion="1"
   nodesatellites_param="F,0,0,1,0,0.5,0,1 @ F,0,0,1,0,0.5,0,1 @ F,0,0,1,0,0.5,0,1 @ F,0,0,1,0,0.5,0,1 @ F,0,0,1,0,0.5,0,1 @ F,0,0,1,0,0.5,0,1 @ F,0,0,1,0,0.5,0,1 @ F,0,0,1,0,0.5,0,1"
   radius="0"
   unit="px"
   method="auto"
   mode="F"
   chamfer_steps="1"
   flexible="false"
   use_knot_distance="true"
   apply_no_radius="true"
   apply_with_radius="true"
   only_selected="false"
   hide_knots="false" /><inkscape:path-effect
   effect="fillet_chamfer"
   id="path-effect243-5"
   is_visible="true"
   lpeversion="1"
   nodesatellites_param="F,0,0,1,0,0,0,1 @ F,0,0,1,0,0,0,1 @ F,0,0,1,0,0,0,1 @ F,0,0,1,0,0,0,1 @ F,0,0,1,0,0,0,1 @ F,0,0,1,0,0,0,1 @ F,0,0,1,0,0,0,1 @ F,0,0,1,0,0,0,1 @ F,0,0,1,0,0,0,1 @ F,0,0,1,0,0,0,1 @ F,0,0,1,0,0,0,1 @ F,0,0,1,0,0,0,1"
   radius="0"
   unit="px"
   method="auto"
   mode="F"
   chamfer_steps="1"
   flexible="false"
   use_knot_distance="true"
   apply_no_radius="true"
   apply_with_radius="true"
   only_selected="false"
   hide_knots="false" /><inkscape:path-effect
   effect="fillet_chamfer"
   id="path-effect241-2"
   is_visible="true"
   lpeversion="1"
   nodesatellites_param="F,0,0,1,0,0.5,0,1 @ F,0,0,1,0,0.5,0,1 @ F,0,0,1,0,0.5,0,1 @ F,0,0,1,0,0.5,0,1 @ F,0,0,1,0,0.5,0,1 @ F,0,0,1,0,0.5,0,1 @ F,0,0,1,0,0.5,0,1 @ F,0,0,1,0,0.5,0,1"
   radius="0"
   unit="px"
   method="auto"
   mode="F"
   chamfer_steps="1"
   flexible="false"
   use_knot_distance="true"
   apply_no_radius="true"
   apply_with_radius="true"
   only_selected="false"
   hide_knots="false" /><inkscape:path-effect
   effect="fillet_chamfer"
   id="path-effect239-5"
   is_visible="true"
   lpeversion="1"
   nodesatellites_param="F,0,0,1,0,0,0,1 @ F,0,0,1,0,0,0,1 @ F,0,0,1,0,0,0,1 @ F,0,0,1,0,0,0,1 @ F,0,0,1,0,0,0,1 @ F,0,0,1,0,0,0,1 @ F,0,0,1,0,0,0,1 @ F,0,0,1,0,0,0,1 @ F,0,0,1,0,0,0,1 @ F,0,0,1,0,0,0,1 @ F,0,0,1,0,0,0,1 @ F,0,0,1,0,0,0,1"
   radius="0"
   unit="px"
   method="auto"
   mode="F"
   chamfer_steps="1"
   flexible="false"
   use_knot_distance="true"
   apply_no_radius="true"
   apply_with_radius="true"
   only_selected="false"
   hide_knots="false" /><inkscape:path-effect
   effect="fillet_chamfer"
   id="path-effect237-4"
   is_visible="true"
   lpeversion="1"
   nodesatellites_param="F,0,0,1,0,0.5,0,1 @ F,0,0,1,0,0.5,0,1 @ F,0,0,1,0,0.5,0,1 @ F,0,0,1,0,0.5,0,1 @ F,0,0,1,0,0.5,0,1 @ F,0,0,1,0,0.5,0,1 @ F,0,0,1,0,0.5,0,1 @ F,0,0,1,0,0.5,0,1"
   radius="0"
   unit="px"
   method="auto"
   mode="F"
   chamfer_steps="1"
   flexible="false"
   use_knot_distance="true"
   apply_no_radius="true"
   apply_with_radius="true"
   only_selected="false"
   hide_knots="false" /><inkscape:path-effect
   effect="fillet_chamfer"
   id="path-effect235-7"
   is_visible="true"
   lpeversion="1"
   nodesatellites_param="F,0,0,1,0,0,0,1 @ F,0,0,1,0,0,0,1 @ F,0,0,1,0,0,0,1 @ F,0,0,1,0,0,0,1 @ F,0,0,1,0,0,0,1 @ F,0,0,1,0,0,0,1 @ F,0,0,1,0,0,0,1 @ F,0,0,1,0,0,0,1 @ F,0,0,1,0,0,0,1 @ F,0,0,1,0,0,0,1 @ F,0,0,1,0,0,0,1 @ F,0,0,1,0,0,0,1"
   radius="0"
   unit="px"
   method="auto"
   mode="F"
   chamfer_steps="1"
   flexible="false"
   use_knot_distance="true"
   apply_no_radius="true"
   apply_with_radius="true"
   only_selected="false"
   hide_knots="false" /><inkscape:path-effect
   effect="fillet_chamfer"
   id="path-effect233-4"
   is_visible="true"
   lpeversion="1"
   nodesatellites_param="F,0,0,1,0,0.5,0,1 @ F,0,0,1,0,0.5,0,1 @ F,0,0,1,0,0.5,0,1 @ F,0,0,1,0,0.5,0,1 @ F,0,0,1,0,0.5,0,1 @ F,0,0,1,0,0.5,0,1 @ F,0,0,1,0,0.5,0,1 @ F,0,0,1,0,0.5,0,1"
   radius="0"
   unit="px"
   method="auto"
   mode="F"
   chamfer_steps="1"
   flexible="false"
   use_knot_distance="true"
   apply_no_radius="true"
   apply_with_radius="true"
   only_selected="false"
   hide_knots="false" /><inkscape:path-effect
   effect="fillet_chamfer"
   id="path-effect231-43"
   is_visible="true"
   lpeversion="1"
   nodesatellites_param="F,0,0,1,0,0,0,1 @ F,0,0,1,0,0,0,1 @ F,0,0,1,0,0,0,1 @ F,0,0,1,0,0,0,1 @ F,0,0,1,0,0,0,1 @ F,0,0,1,0,0,0,1 @ F,0,0,1,0,0,0,1 @ F,0,0,1,0,0,0,1 @ F,0,0,1,0,0,0,1 @ F,0,0,1,0,0,0,1 @ F,0,0,1,0,0,0,1 @ F,0,0,1,0,0,0,1"
   radius="0"
   unit="px"
   method="auto"
   mode="F"
   chamfer_steps="1"
   flexible="false"
   use_knot_distance="true"
   apply_no_radius="true"
   apply_with_radius="true"
   only_selected="false"
   hide_knots="false" /><inkscape:path-effect
   effect="fillet_chamfer"
   id="path-effect229-0"
   is_visible="true"
   lpeversion="1"
   nodesatellites_param="F,0,0,1,0,0.5,0,1 @ F,0,0,1,0,0.5,0,1 @ F,0,0,1,0,0.5,0,1 @ F,0,0,1,0,0.5,0,1 @ F,0,0,1,0,0.5,0,1 @ F,0,0,1,0,0.5,0,1 @ F,0,0,1,0,0.5,0,1 @ F,0,0,1,0,0.5,0,1"
   radius="0"
   unit="px"
   method="auto"
   mode="F"
   chamfer_steps="1"
   flexible="false"
   use_knot_distance="true"
   apply_no_radius="true"
   apply_with_radius="true"
   only_selected="false"
   hide_knots="false" /><inkscape:path-effect
   effect="fillet_chamfer"
   id="path-effect227-7"
   is_visible="true"
   lpeversion="1"
   nodesatellites_param="F,0,0,1,0,0,0,1 @ F,0,0,1,0,0,0,1 @ F,0,0,1,0,0,0,1 @ F,0,0,1,0,0,0,1 @ F,0,0,1,0,0,0,1 @ F,0,0,1,0,0,0,1 @ F,0,0,1,0,0,0,1 @ F,0,0,1,0,0,0,1 @ F,0,0,1,0,0,0,1 @ F,0,0,1,0,0,0,1 @ F,0,0,1,0,0,0,1 @ F,0,0,1,0,0,0,1"
   radius="0"
   unit="px"
   method="auto"
   mode="F"
   chamfer_steps="1"
   flexible="false"
   use_knot_distance="true"
   apply_no_radius="true"
   apply_with_radius="true"
   only_selected="false"
   hide_knots="false" /><inkscape:path-effect
   effect="fillet_chamfer"
   id="path-effect123-8"
   is_visible="true"
   lpeversion="1"
   nodesatellites_param="F,0,0,1,0,0.5,0,1 @ F,0,0,1,0,0.5,0,1 @ F,0,0,1,0,0.5,0,1 @ F,0,0,1,0,0.5,0,1 @ F,0,0,1,0,0.5,0,1 @ F,0,0,1,0,0.5,0,1 @ F,0,0,1,0,0.5,0,1 @ F,0,0,1,0,0.5,0,1"
   radius="0"
   unit="px"
   method="auto"
   mode="F"
   chamfer_steps="1"
   flexible="false"
   use_knot_distance="true"
   apply_no_radius="true"
   apply_with_radius="true"
   only_selected="false"
   hide_knots="false" /><inkscape:path-effect
   effect="fillet_chamfer"
   id="path-effect121-6"
   is_visible="true"
   lpeversion="1"
   nodesatellites_param="F,0,0,1,0,0,0,1 @ F,0,0,1,0,0,0,1 @ F,0,0,1,0,0,0,1 @ F,0,0,1,0,0,0,1 @ F,0,0,1,0,0,0,1 @ F,0,0,1,0,0,0,1 @ F,0,0,1,0,0,0,1 @ F,0,0,1,0,0,0,1 @ F,0,0,1,0,0,0,1 @ F,0,0,1,0,0,0,1 @ F,0,0,1,0,0,0,1 @ F,0,0,1,0,0,0,1"
   radius="0"
   unit="px"
   method="auto"
   mode="F"
   chamfer_steps="1"
   flexible="false"
   use_knot_distance="true"
   apply_no_radius="true"
   apply_with_radius="true"
   only_selected="false"
   hide_knots="false" /><inkscape:path-effect
   effect="fillet_chamfer"
   id="path-effect117-8"
   is_visible="true"
   lpeversion="1"
   nodesatellites_param="F,0,0,1,0,0.5,0,1 @ F,0,0,1,0,0.5,0,1 @ F,0,0,1,0,0.5,0,1 @ F,0,0,1,0,0.5,0,1 @ F,0,0,1,0,0.5,0,1 @ F,0,0,1,0,0.5,0,1 @ F,0,0,1,0,0.5,0,1 @ F,0,0,1,0,0.5,0,1"
   radius="0"
   unit="px"
   method="auto"
   mode="F"
   chamfer_steps="1"
   flexible="false"
   use_knot_distance="true"
   apply_no_radius="true"
   apply_with_radius="true"
   only_selected="false"
   hide_knots="false" /><inkscape:path-effect
   effect="fillet_chamfer"
   id="path-effect115-8"
   is_visible="true"
   lpeversion="1"
   nodesatellites_param="F,0,0,1,0,0,0,1 @ F,0,0,1,0,0,0,1 @ F,0,0,1,0,0,0,1 @ F,0,0,1,0,0,0,1 @ F,0,0,1,0,0,0,1 @ F,0,0,1,0,0,0,1 @ F,0,0,1,0,0,0,1 @ F,0,0,1,0,0,0,1 @ F,0,0,1,0,0,0,1 @ F,0,0,1,0,0,0,1 @ F,0,0,1,0,0,0,1 @ F,0,0,1,0,0,0,1"
   radius="0"
   unit="px"
   method="auto"
   mode="F"
   chamfer_steps="1"
   flexible="false"
   use_knot_distance="true"
   apply_no_radius="true"
   apply_with_radius="true"
   only_selected="false"
   hide_knots="false" /><inkscape:path-effect
   effect="fillet_chamfer"
   id="path-effect111-4"
   is_visible="true"
   lpeversion="1"
   nodesatellites_param="F,0,0,1,0,0.5,0,1 @ F,0,0,1,0,0.5,0,1 @ F,0,0,1,0,0.5,0,1 @ F,0,0,1,0,0.5,0,1 @ F,0,0,1,0,0.5,0,1 @ F,0,0,1,0,0.5,0,1 @ F,0,0,1,0,0.5,0,1 @ F,0,0,1,0,0.5,0,1"
   radius="0"
   unit="px"
   method="auto"
   mode="F"
   chamfer_steps="1"
   flexible="false"
   use_knot_distance="true"
   apply_no_radius="true"
   apply_with_radius="true"
   only_selected="false"
   hide_knots="false" /><inkscape:path-effect
   effect="fillet_chamfer"
   id="path-effect109-3"
   is_visible="true"
   lpeversion="1"
   nodesatellites_param="F,0,0,1,0,0,0,1 @ F,0,0,1,0,0,0,1 @ F,0,0,1,0,0,0,1 @ F,0,0,1,0,0,0,1 @ F,0,0,1,0,0,0,1 @ F,0,0,1,0,0,0,1 @ F,0,0,1,0,0,0,1 @ F,0,0,1,0,0,0,1 @ F,0,0,1,0,0,0,1 @ F,0,0,1,0,0,0,1 @ F,0,0,1,0,0,0,1 @ F,0,0,1,0,0,0,1"
   radius="0"
   unit="px"
   method="auto"
   mode="F"
   chamfer_steps="1"
   flexible="false"
   use_knot_distance="true"
   apply_no_radius="true"
   apply_with_radius="true"
   only_selected="false"
   hide_knots="false" /><inkscape:path-effect
   effect="fillet_chamfer"
   id="path-effect105-1"
   is_visible="true"
   lpeversion="1"
   nodesatellites_param="F,0,0,1,0,0.5,0,1 @ F,0,0,1,0,0.5,0,1 @ F,0,0,1,0,0.5,0,1 @ F,0,0,1,0,0.5,0,1 @ F,0,0,1,0,0.5,0,1 @ F,0,0,1,0,0.5,0,1 @ F,0,0,1,0,0.5,0,1 @ F,0,0,1,0,0.5,0,1"
   radius="0"
   unit="px"
   method="auto"
   mode="F"
   chamfer_steps="1"
   flexible="false"
   use_knot_distance="true"
   apply_no_radius="true"
   apply_with_radius="true"
   only_selected="false"
   hide_knots="false" /><inkscape:path-effect
   effect="fillet_chamfer"
   id="path-effect103-4"
   is_visible="true"
   lpeversion="1"
   nodesatellites_param="F,0,0,1,0,0,0,1 @ F,0,0,1,0,0,0,1 @ F,0,0,1,0,0,0,1 @ F,0,0,1,0,0,0,1 @ F,0,0,1,0,0,0,1 @ F,0,0,1,0,0,0,1 @ F,0,0,1,0,0,0,1 @ F,0,0,1,0,0,0,1 @ F,0,0,1,0,0,0,1 @ F,0,0,1,0,0,0,1 @ F,0,0,1,0,0,0,1 @ F,0,0,1,0,0,0,1"
   radius="0"
   unit="px"
   method="auto"
   mode="F"
   chamfer_steps="1"
   flexible="false"
   use_knot_distance="true"
   apply_no_radius="true"
   apply_with_radius="true"
   only_selected="false"
   hide_knots="false" /><inkscape:path-effect
   effect="fillet_chamfer"
   id="path-effect99-9"
   is_visible="true"
   lpeversion="1"
   nodesatellites_param="F,0,0,1,0,0.5,0,1 @ F,0,0,1,0,0.5,0,1 @ F,0,0,1,0,0.5,0,1 @ F,0,0,1,0,0.5,0,1 @ F,0,0,1,0,0.5,0,1 @ F,0,0,1,0,0.5,0,1 @ F,0,0,1,0,0.5,0,1 @ F,0,0,1,0,0.5,0,1"
   radius="0"
   unit="px"
   method="auto"
   mode="F"
   chamfer_steps="1"
   flexible="false"
   use_knot_distance="true"
   apply_no_radius="true"
   apply_with_radius="true"
   only_selected="false"
   hide_knots="false" /><inkscape:path-effect
   effect="fillet_chamfer"
   id="path-effect97-2"
   is_visible="true"
   lpeversion="1"
   nodesatellites_param="F,0,0,1,0,0,0,1 @ F,0,0,1,0,0,0,1 @ F,0,0,1,0,0,0,1 @ F,0,0,1,0,0,0,1 @ F,0,0,1,0,0,0,1 @ F,0,0,1,0,0,0,1 @ F,0,0,1,0,0,0,1 @ F,0,0,1,0,0,0,1 @ F,0,0,1,0,0,0,1 @ F,0,0,1,0,0,0,1 @ F,0,0,1,0,0,0,1 @ F,0,0,1,0,0,0,1"
   radius="0"
   unit="px"
   method="auto"
   mode="F"
   chamfer_steps="1"
   flexible="false"
   use_knot_distance="true"
   apply_no_radius="true"
   apply_with_radius="true"
   only_selected="false"
   hide_knots="false" /><inkscape:path-effect
   effect="fillet_chamfer"
   id="path-effect93-0"
   is_visible="true"
   lpeversion="1"
   nodesatellites_param="F,0,0,1,0,0.5,0,1 @ F,0,0,1,0,0.5,0,1 @ F,0,0,1,0,0.5,0,1 @ F,0,0,1,0,0.5,0,1 @ F,0,0,1,0,0.5,0,1 @ F,0,0,1,0,0.5,0,1 @ F,0,0,1,0,0.5,0,1 @ F,0,0,1,0,0.5,0,1"
   radius="0"
   unit="px"
   method="auto"
   mode="F"
   chamfer_steps="1"
   flexible="false"
   use_knot_distance="true"
   apply_no_radius="true"
   apply_with_radius="true"
   only_selected="false"
   hide_knots="false" /><inkscape:path-effect
   effect="fillet_chamfer"
   id="path-effect91-6"
   is_visible="true"
   lpeversion="1"
   nodesatellites_param="F,0,0,1,0,0,0,1 @ F,0,0,1,0,0,0,1 @ F,0,0,1,0,0,0,1 @ F,0,0,1,0,0,0,1 @ F,0,0,1,0,0,0,1 @ F,0,0,1,0,0,0,1 @ F,0,0,1,0,0,0,1 @ F,0,0,1,0,0,0,1 @ F,0,0,1,0,0,0,1 @ F,0,0,1,0,0,0,1 @ F,0,0,1,0,0,0,1 @ F,0,0,1,0,0,0,1"
   radius="0"
   unit="px"
   method="auto"
   mode="F"
   chamfer_steps="1"
   flexible="false"
   use_knot_distance="true"
   apply_no_radius="true"
   apply_with_radius="true"
   only_selected="false"
   hide_knots="false" /><inkscape:path-effect
   effect="fillet_chamfer"
   id="path-effect86-8"
   is_visible="true"
   lpeversion="1"
   nodesatellites_param="F,0,0,1,0,0,0,1 @ F,0,0,1,0,0,0,1 @ F,0,0,1,0,0,0,1 @ F,0,0,1,0,0,0,1 @ F,0,0,1,0,0,0,1 @ F,0,0,1,0,0,0,1 @ F,0,0,1,0,0,0,1 @ F,0,0,1,0,0,0,1 @ F,0,0,1,0,0,0,1 @ F,0,0,1,0,0,0,1 @ F,0,0,1,0,0,0,1 @ F,0,0,1,0,0,0,1"
   radius="0"
   unit="px"
   method="auto"
   mode="F"
   chamfer_steps="1"
   flexible="false"
   use_knot_distance="true"
   apply_no_radius="true"
   apply_with_radius="true"
   only_selected="false"
   hide_knots="false" /><inkscape:path-effect
   effect="fillet_chamfer"
   id="path-effect85-9"
   is_visible="true"
   lpeversion="1"
   nodesatellites_param="F,0,0,1,0,0.5,0,1 @ F,0,0,1,0,0.5,0,1 @ F,0,0,1,0,0.5,0,1 @ F,0,0,1,0,0.5,0,1 @ F,0,0,1,0,0.5,0,1 @ F,0,0,1,0,0.5,0,1 @ F,0,0,1,0,0.5,0,1 @ F,0,0,1,0,0.5,0,1"
   radius="1.8897638"
   unit="px"
   method="auto"
   mode="F"
   chamfer_steps="1"
   flexible="false"
   use_knot_distance="true"
   apply_no_radius="true"
   apply_with_radius="true"
   only_selected="false"
   hide_knots="false" /><font
   id="EmbeddedFont_1-2"
   horiz-adv-x="2048"
   horiz-origin-x="0"
   horiz-origin-y="0"
   vert-origin-x="512"
   vert-origin-y="768"
   vert-adv-y="1024">
   <font-face
   font-family="Arial embedded"
   units-per-em="2048"
   font-weight="normal"
   font-style="normal"
   ascent="1852"
   descent="423"
   id="font-face2-6" />
   <missing-glyph
   horiz-adv-x="2048"
   d="M 0,0 L 2047,0 2047,2047 0,2047 0,0 Z"
   id="missing-glyph4-6" />
   <glyph
   unicode="o"
   horiz-adv-x="980"
   d="M 1053,542 C 1053,353 1011,212 928,119 845,26 724,-20 565,-20 407,-20 288,28 207,125 126,221 86,360 86,542 86,915 248,1102 571,1102 736,1102 858,1057 936,966 1014,875 1053,733 1053,542 Z M 864,542 C 864,691 842,800 798,868 753,935 679,969 574,969 469,969 393,935 346,866 299,797 275,689 275,542 275,399 298,292 345,221 391,149 464,113 563,113 671,113 748,148 795,217 841,286 864,395 864,542 Z"
   id="glyph6-4" />
   <glyph
   unicode="m"
   horiz-adv-x="1457"
   d="M 768,0 L 768,686 C 768,791 754,863 725,903 696,943 645,963 570,963 493,963 433,934 388,875 343,816 321,734 321,627 L 321,0 142,0 142,851 C 142,977 140,1054 136,1082 L 306,1082 C 307,1079 307,1070 308,1055 309,1040 310,1024 311,1005 312,986 313,950 314,897 L 317,897 C 356,974 400,1027 450,1057 500,1087 561,1102 633,1102 715,1102 780,1086 828,1053 875,1020 908,968 927,897 L 930,897 C 967,970 1013,1022 1066,1054 1119,1086 1183,1102 1258,1102 1367,1102 1447,1072 1497,1013 1546,954 1571,856 1571,721 L 1571,0 1393,0 1393,686 C 1393,791 1379,863 1350,903 1321,943 1270,963 1195,963 1116,963 1055,934 1012,876 968,817 946,734 946,627 L 946,0 768,0 Z"
   id="glyph8-9" />
   <glyph
   unicode="l"
   horiz-adv-x="187"
   d="M 138,0 L 138,1484 318,1484 318,0 138,0 Z"
   id="glyph10-5" />
   <glyph
   unicode="k"
   horiz-adv-x="901"
   d="M 816,0 L 450,494 318,385 318,0 138,0 138,1484 318,1484 318,557 793,1082 1004,1082 565,617 1027,0 816,0 Z"
   id="glyph12-0" />
   <glyph
   unicode="i"
   horiz-adv-x="187"
   d="M 137,0 L 137,1082 317,1082 317,0 137,0 Z M 137,1312 L 137,1484 317,1484 317,1312 137,1312 Z"
   id="glyph14-4" />
   <glyph
   unicode="e"
   horiz-adv-x="980"
   d="M 276,503 C 276,379 302,283 353,216 404,149 479,115 578,115 656,115 719,131 766,162 813,193 844,233 861,281 L 1019,236 C 954,65 807,-20 578,-20 418,-20 296,28 213,123 129,218 87,360 87,548 87,727 129,864 213,959 296,1054 416,1102 571,1102 889,1102 1048,910 1048,527 L 1048,503 276,503 Z M 862,641 C 852,755 823,838 775,891 727,943 658,969 568,969 481,969 412,940 361,882 310,823 282,743 278,641 L 862,641 Z"
   id="glyph16-8" />
   <glyph
   unicode="d"
   horiz-adv-x="927"
   d="M 821,174 C 788,105 744,55 689,25 634,-5 565,-20 484,-20 347,-20 247,26 183,118 118,210 86,349 86,536 86,913 219,1102 484,1102 566,1102 634,1087 689,1057 744,1027 788,979 821,914 L 823,914 821,1035 821,1484 1001,1484 1001,223 C 1001,110 1003,36 1007,0 L 835,0 C 833,11 831,35 829,74 826,113 825,146 825,174 L 821,174 Z M 275,542 C 275,391 295,282 335,217 375,152 440,119 530,119 632,119 706,154 752,225 798,296 821,405 821,554 821,697 798,802 752,869 706,936 633,969 532,969 441,969 376,936 336,869 295,802 275,693 275,542 Z"
   id="glyph18-7" />
   <glyph
   unicode="c"
   horiz-adv-x="901"
   d="M 275,546 C 275,402 298,295 343,226 388,157 457,122 548,122 612,122 666,139 709,174 752,209 778,262 788,334 L 970,322 C 956,218 912,135 837,73 762,11 668,-20 553,-20 402,-20 286,28 207,124 127,219 87,359 87,542 87,724 127,863 207,959 287,1054 402,1102 551,1102 662,1102 754,1073 827,1016 900,959 945,880 964,779 L 779,765 C 770,825 746,873 708,908 670,943 616,961 546,961 451,961 382,929 339,866 296,803 275,696 275,546 Z"
   id="glyph20-1" />
   <glyph
   unicode="a"
   horiz-adv-x="1060"
   d="M 414,-20 C 305,-20 224,9 169,66 114,123 87,202 87,302 87,414 124,500 198,560 271,620 390,652 554,656 L 797,660 797,719 C 797,807 778,870 741,908 704,946 645,965 565,965 484,965 426,951 389,924 352,897 330,853 323,793 L 135,810 C 166,1005 310,1102 569,1102 705,1102 807,1071 876,1009 945,946 979,856 979,738 L 979,272 C 979,219 986,179 1000,152 1014,125 1041,111 1080,111 1097,111 1117,113 1139,118 L 1139,6 C 1094,-5 1047,-10 1000,-10 933,-10 885,8 855,43 824,78 807,132 803,207 L 797,207 C 751,124 698,66 637,32 576,-3 501,-20 414,-20 Z M 455,115 C 521,115 580,130 631,160 682,190 723,231 753,284 782,336 797,390 797,445 L 797,534 600,530 C 515,529 451,520 408,504 364,488 330,463 307,430 284,397 272,353 272,299 272,240 288,195 320,163 351,131 396,115 455,115 Z"
   id="glyph22-7" />
   <glyph
   unicode="S"
   horiz-adv-x="1192"
   d="M 1272,389 C 1272,259 1221,158 1120,87 1018,16 875,-20 690,-20 347,-20 148,99 93,338 L 278,375 C 299,290 345,228 414,189 483,149 578,129 697,129 820,129 916,150 983,193 1050,235 1083,297 1083,379 1083,425 1073,462 1052,491 1031,520 1001,543 963,562 925,581 880,596 827,609 774,622 716,635 652,650 541,675 456,699 399,724 341,749 295,776 262,807 229,837 203,872 186,913 168,954 159,1000 159,1053 159,1174 205,1267 298,1332 390,1397 522,1430 694,1430 854,1430 976,1406 1061,1357 1146,1308 1205,1224 1239,1106 L 1051,1073 C 1030,1148 991,1202 933,1236 875,1269 795,1286 692,1286 579,1286 493,1267 434,1230 375,1193 345,1137 345,1063 345,1020 357,984 380,956 403,927 436,903 479,884 522,864 609,840 738,811 781,801 825,791 868,781 911,770 952,758 991,744 1030,729 1067,712 1102,693 1136,674 1166,650 1191,622 1216,594 1236,561 1251,523 1265,485 1272,440 1272,389 Z"
   id="glyph24-2" />
   <glyph
   unicode="R"
   horiz-adv-x="1244"
   d="M 1164,0 L 798,585 359,585 359,0 168,0 168,1409 831,1409 C 990,1409 1112,1374 1199,1303 1285,1232 1328,1133 1328,1006 1328,901 1298,813 1237,742 1176,671 1091,626 984,607 L 1384,0 1164,0 Z M 1136,1004 C 1136,1086 1108,1149 1053,1192 997,1235 917,1256 812,1256 L 359,1256 359,736 820,736 C 921,736 999,760 1054,807 1109,854 1136,919 1136,1004 Z"
   id="glyph26-7" />
   <glyph
   unicode="P"
   horiz-adv-x="1112"
   d="M 1258,985 C 1258,852 1215,746 1128,667 1041,588 922,549 773,549 L 359,549 359,0 168,0 168,1409 761,1409 C 919,1409 1041,1372 1128,1298 1215,1224 1258,1120 1258,985 Z M 1066,983 C 1066,1165 957,1256 738,1256 L 359,1256 359,700 746,700 C 959,700 1066,794 1066,983 Z"
   id="glyph28-2" />
   <glyph
   unicode="M"
   horiz-adv-x="1377"
   d="M 1366,0 L 1366,940 C 1366,1044 1369,1144 1375,1240 1342,1121 1313,1027 1287,960 L 923,0 789,0 420,960 364,1130 331,1240 334,1129 338,940 338,0 168,0 168,1409 419,1409 794,432 C 807,393 820,351 833,306 845,261 853,228 857,208 862,235 874,275 891,330 908,384 919,418 925,432 L 1293,1409 1538,1409 1538,0 1366,0 Z"
   id="glyph30-2" />
   <glyph
   unicode="B"
   horiz-adv-x="1112"
   d="M 1258,397 C 1258,272 1212,174 1121,105 1030,35 903,0 740,0 L 168,0 168,1409 680,1409 C 1011,1409 1176,1295 1176,1067 1176,984 1153,914 1106,857 1059,800 993,762 908,743 1020,730 1106,692 1167,631 1228,569 1258,491 1258,397 Z M 1065,412 C 1065,578 948,661 715,661 L 359,661 359,153 730,153 C 847,153 932,175 985,218 1038,261 1065,326 1065,412 Z M 984,1044 C 984,1120 958,1174 906,1207 854,1240 779,1256 680,1256 L 359,1256 359,810 680,810 C 782,810 858,829 909,868 959,906 984,965 984,1044 Z"
   id="glyph32-6" />
   <glyph
   unicode=":"
   horiz-adv-x="213"
   d="M 187,0 L 187,207 382,207 382,0 187,0 Z M 187,875 L 187,1082 382,1082 382,875 187,875 Z"
   id="glyph34-1" />
   <glyph
   unicode="8"
   horiz-adv-x="980"
   d="M 1050,393 C 1050,263 1009,162 926,89 843,16 725,-20 570,-20 419,-20 302,16 217,87 132,158 89,260 89,391 89,483 115,560 168,623 221,686 288,724 370,737 L 370,741 C 293,759 233,798 189,858 144,918 122,988 122,1069 122,1176 162,1263 243,1330 323,1397 431,1430 566,1430 705,1430 814,1397 895,1332 975,1267 1015,1178 1015,1067 1015,986 993,916 948,856 903,796 842,758 765,743 L 765,739 C 855,724 925,686 975,625 1025,563 1050,486 1050,393 Z M 863,410 C 863,497 837,563 785,608 733,652 660,674 566,674 475,674 403,650 352,603 301,555 275,489 275,406 275,212 374,115 572,115 670,115 743,139 791,186 839,233 863,307 863,410 Z M 828,1057 C 828,1216 741,1296 566,1296 481,1296 417,1276 373,1236 328,1196 306,1136 306,1057 306,976 329,915 375,873 420,830 485,809 568,809 653,809 717,829 762,868 806,907 828,970 828,1057 Z"
   id="glyph36-0" />
   <glyph
   unicode="6"
   horiz-adv-x="980"
   d="M 1049,461 C 1049,312 1009,195 928,109 847,23 736,-20 594,-20 435,-20 314,39 230,157 146,275 104,447 104,672 104,916 148,1103 235,1234 322,1365 447,1430 608,1430 821,1430 955,1334 1010,1143 L 838,1112 C 803,1227 725,1284 606,1284 503,1284 424,1236 368,1141 311,1045 283,906 283,725 316,786 362,832 421,864 480,895 548,911 625,911 755,911 858,870 935,789 1011,708 1049,598 1049,461 Z M 866,453 C 866,555 841,634 791,689 741,744 671,772 582,772 498,772 430,748 379,699 327,650 301,582 301,496 301,387 328,298 382,229 435,160 504,125 588,125 675,125 743,154 792,213 841,271 866,351 866,453 Z"
   id="glyph38-61" />
   <glyph
   unicode="5"
   horiz-adv-x="980"
   d="M 1053,459 C 1053,310 1009,193 921,108 832,23 710,-20 553,-20 422,-20 316,9 235,66 154,123 103,206 82,315 L 264,336 C 302,197 400,127 557,127 654,127 729,156 784,215 839,273 866,353 866,455 866,544 839,615 784,670 729,725 654,752 561,752 512,752 467,744 425,729 383,714 341,688 299,651 L 123,651 170,1409 971,1409 971,1256 334,1256 307,809 C 385,869 482,899 598,899 737,899 847,858 930,777 1012,696 1053,590 1053,459 Z"
   id="glyph40-5" />
   <glyph
   unicode="4"
   horiz-adv-x="1060"
   d="M 881,319 L 881,0 711,0 711,319 47,319 47,459 692,1409 881,1409 881,461 1079,461 1079,319 881,319 Z M 711,461 L 711,1206 C 696,1177 683,1153 673,1134 662,1115 653,1100 644,1087 L 321,609 C 302,582 266,532 213,461 L 711,461 Z"
   id="glyph42-9" />
   <glyph
   unicode="2"
   horiz-adv-x="954"
   d="M 103,0 L 103,127 C 137,205 179,274 228,334 277,393 328,447 382,496 436,544 490,589 543,630 596,671 643,713 686,754 729,795 763,839 790,884 816,929 829,981 829,1038 829,1115 806,1175 761,1218 716,1261 653,1282 572,1282 495,1282 432,1261 383,1220 333,1178 304,1119 295,1044 L 111,1061 C 124,1174 172,1263 255,1330 337,1397 443,1430 572,1430 714,1430 823,1397 900,1330 976,1263 1014,1167 1014,1044 1014,989 1002,935 977,881 952,827 914,773 865,719 816,665 721,581 582,468 505,405 444,349 399,299 354,248 321,200 301,153 L 1036,153 1036,0 103,0 Z"
   id="glyph44-4" />
   <glyph
   unicode="1"
   horiz-adv-x="927"
   d="M 156,0 L 156,153 515,153 515,1237 197,1010 197,1180 530,1409 696,1409 696,153 1039,153 1039,0 156,0 Z"
   id="glyph46-9" />
   <glyph
   unicode="0"
   horiz-adv-x="980"
   d="M 1059,705 C 1059,470 1018,290 935,166 852,42 729,-20 567,-20 405,-20 283,42 202,165 121,288 80,468 80,705 80,947 120,1128 199,1249 278,1370 402,1430 573,1430 739,1430 862,1369 941,1247 1020,1125 1059,944 1059,705 Z M 876,705 C 876,908 853,1056 806,1147 759,1238 681,1284 573,1284 462,1284 383,1239 335,1149 286,1059 262,911 262,705 262,505 287,359 336,266 385,173 462,127 569,127 675,127 753,174 802,269 851,364 876,509 876,705 Z"
   id="glyph48-0" />
   <glyph
   unicode="."
   horiz-adv-x="213"
   d="M 187,0 L 187,219 382,219 382,0 187,0 Z"
   id="glyph50-91" />
   <glyph
   unicode=" "
   horiz-adv-x="556"
   id="glyph52-7" />
  </font><font
   id="EmbeddedFont_2-71"
   horiz-adv-x="2048"
   horiz-origin-x="0"
   horiz-origin-y="0"
   vert-origin-x="512"
   vert-origin-y="768"
   vert-adv-y="1024">
   <font-face
   font-family="DejaVu Sans embedded"
   units-per-em="2048"
   font-weight="normal"
   font-style="normal"
   ascent="1879"
   descent="476"
   id="font-face57-1" />
   <missing-glyph
   horiz-adv-x="2048"
   d="M 0,0 L 2047,0 2047,2047 0,2047 0,0 Z"
   id="missing-glyph59-5" />
   <glyph
   unicode="U"
   horiz-adv-x="1165"
   d="M 178,1493 L 381,1493 381,586 C 381,426 410,311 468,241 526,170 620,135 750,135 879,135 973,170 1031,241 1089,311 1118,426 1118,586 L 1118,1493 1321,1493 1321,561 C 1321,366 1273,219 1177,120 1080,21 938,-29 750,-29 561,-29 419,21 323,120 226,219 178,366 178,561 L 178,1493 Z"
   id="glyph61-9" />
   <glyph
   unicode="T"
   horiz-adv-x="1297"
   d="M -6,1493 L 1257,1493 1257,1323 727,1323 727,0 524,0 524,1323 -6,1323 -6,1493 Z"
   id="glyph63-7" />
   <glyph
   unicode="S"
   horiz-adv-x="1060"
   d="M 1096,1444 L 1096,1247 C 1019,1284 947,1311 879,1329 811,1347 745,1356 682,1356 572,1356 487,1335 428,1292 368,1249 338,1189 338,1110 338,1044 358,994 398,961 437,927 512,900 623,879 L 745,854 C 896,825 1007,775 1079,703 1150,630 1186,533 1186,412 1186,267 1138,158 1041,83 944,8 801,-29 614,-29 543,-29 468,-21 389,-5 309,11 226,35 141,66 L 141,274 C 223,228 303,193 382,170 461,147 538,135 614,135 729,135 818,158 881,203 944,248 975,313 975,397 975,470 953,528 908,569 863,610 789,641 686,662 L 563,686 C 412,716 303,763 236,827 169,891 135,980 135,1094 135,1226 182,1330 275,1406 368,1482 496,1520 659,1520 729,1520 800,1514 873,1501 946,1488 1020,1469 1096,1444 Z"
   id="glyph65-7" />
   <glyph
   unicode="O"
   horiz-adv-x="1403"
   d="M 807,1356 C 660,1356 544,1301 458,1192 371,1083 328,934 328,745 328,557 371,408 458,299 544,190 660,135 807,135 954,135 1070,190 1156,299 1241,408 1284,557 1284,745 1284,934 1241,1083 1156,1192 1070,1301 954,1356 807,1356 Z M 807,1520 C 1016,1520 1184,1450 1309,1310 1434,1169 1497,981 1497,745 1497,510 1434,322 1309,182 1184,41 1016,-29 807,-29 597,-29 429,41 304,181 178,321 115,509 115,745 115,981 178,1169 304,1310 429,1450 597,1520 807,1520 Z"
   id="glyph67-67" />
   <glyph
   unicode="L"
   horiz-adv-x="954"
   d="M 201,1493 L 403,1493 403,170 1130,170 1130,0 201,0 201,1493 Z"
   id="glyph69-3" />
   <glyph
   unicode="G"
   horiz-adv-x="1324"
   d="M 1219,213 L 1219,614 889,614 889,780 1419,780 1419,139 C 1341,84 1255,42 1161,14 1067,-15 967,-29 860,-29 627,-29 444,39 313,176 181,312 115,502 115,745 115,989 181,1179 313,1316 444,1452 627,1520 860,1520 957,1520 1050,1508 1138,1484 1225,1460 1306,1425 1380,1378 L 1380,1163 C 1305,1226 1226,1274 1142,1306 1058,1338 970,1354 877,1354 694,1354 557,1303 466,1201 374,1099 328,947 328,745 328,544 374,392 466,290 557,188 694,137 877,137 948,137 1012,143 1068,156 1124,168 1174,187 1219,213 Z"
   id="glyph71-6" />
   <glyph
   unicode="E"
   horiz-adv-x="980"
   d="M 201,1493 L 1145,1493 1145,1323 403,1323 403,881 1114,881 1114,711 403,711 403,170 1163,170 1163,0 201,0 201,1493 Z"
   id="glyph73-5" />
   <glyph
   unicode="D"
   horiz-adv-x="1271"
   d="M 403,1327 L 403,166 647,166 C 853,166 1004,213 1100,306 1195,399 1243,547 1243,748 1243,948 1195,1095 1100,1188 1004,1281 853,1327 647,1327 L 403,1327 Z M 201,1493 L 616,1493 C 905,1493 1118,1433 1253,1313 1388,1192 1456,1004 1456,748 1456,491 1388,302 1252,181 1116,60 904,0 616,0 L 201,0 201,1493 Z"
   id="glyph75-63" />
   <glyph
   unicode="B"
   horiz-adv-x="1086"
   d="M 403,713 L 403,166 727,166 C 836,166 916,189 969,234 1021,279 1047,347 1047,440 1047,533 1021,602 969,647 916,691 836,713 727,713 L 403,713 Z M 403,1327 L 403,877 702,877 C 801,877 874,896 923,933 971,970 995,1026 995,1102 995,1177 971,1234 923,1271 874,1308 801,1327 702,1327 L 403,1327 Z M 201,1493 L 717,1493 C 871,1493 990,1461 1073,1397 1156,1333 1198,1242 1198,1124 1198,1033 1177,960 1134,906 1091,852 1029,818 946,805 1045,784 1123,739 1178,672 1233,604 1260,519 1260,418 1260,285 1215,182 1124,109 1033,36 904,0 737,0 L 201,0 201,1493 Z"
   id="glyph77-9" />
   <glyph
   unicode="9"
   horiz-adv-x="1059"
   d="M 225,31 L 225,215 C 276,191 327,173 379,160 431,147 482,141 532,141 665,141 767,186 838,276 908,365 948,501 958,684 919,627 870,583 811,552 752,521 686,506 614,506 465,506 347,551 260,642 173,732 129,855 129,1012 129,1165 174,1288 265,1381 356,1474 476,1520 627,1520 800,1520 932,1454 1023,1322 1114,1189 1159,997 1159,745 1159,510 1103,322 992,182 880,41 730,-29 541,-29 490,-29 439,-24 387,-14 335,-4 281,11 225,31 Z M 627,664 C 718,664 790,695 843,757 896,819 922,904 922,1012 922,1119 896,1204 843,1267 790,1329 718,1360 627,1360 536,1360 465,1329 412,1267 359,1204 332,1119 332,1012 332,904 359,819 412,757 465,695 536,664 627,664 Z"
   id="glyph79-4" />
   <glyph
   unicode="3"
   horiz-adv-x="1007"
   d="M 831,805 C 928,784 1003,741 1058,676 1112,611 1139,530 1139,434 1139,287 1088,173 987,92 886,11 742,-29 555,-29 492,-29 428,-23 362,-11 295,2 227,20 156,45 L 156,240 C 212,207 273,183 340,166 407,149 476,141 549,141 676,141 772,166 839,216 905,266 938,339 938,434 938,522 907,591 846,641 784,690 698,715 588,715 L 414,715 414,881 596,881 C 695,881 771,901 824,941 877,980 903,1037 903,1112 903,1189 876,1248 822,1289 767,1330 689,1350 588,1350 533,1350 473,1344 410,1332 347,1320 277,1301 201,1276 L 201,1456 C 278,1477 350,1493 417,1504 484,1515 547,1520 606,1520 759,1520 881,1485 970,1416 1059,1346 1104,1252 1104,1133 1104,1050 1080,981 1033,924 986,867 918,827 831,805 Z"
   id="glyph81-8" />
   <glyph
   unicode="2"
   horiz-adv-x="980"
   d="M 393,170 L 1098,170 1098,0 150,0 150,170 C 227,249 331,356 464,490 596,623 679,709 713,748 778,821 823,882 849,933 874,983 887,1032 887,1081 887,1160 859,1225 804,1275 748,1325 675,1350 586,1350 523,1350 456,1339 386,1317 315,1295 240,1262 160,1217 L 160,1421 C 241,1454 317,1478 388,1495 459,1512 523,1520 582,1520 737,1520 860,1481 952,1404 1044,1327 1090,1223 1090,1094 1090,1033 1079,975 1056,920 1033,865 991,800 930,725 913,706 860,650 771,558 682,465 556,336 393,170 Z"
   id="glyph83-12" />
   <glyph
   unicode="1"
   horiz-adv-x="900"
   d="M 254,170 L 584,170 584,1309 225,1237 225,1421 582,1493 784,1493 784,170 1114,170 1114,0 254,0 254,170 Z"
   id="glyph85-9" />
  </font><font
   id="EmbeddedFont_3-3"
   horiz-adv-x="2048"
   horiz-origin-x="0"
   horiz-origin-y="0"
   vert-origin-x="512"
   vert-origin-y="768"
   vert-adv-y="1024">
   <font-face
   font-family="Liberation Sans embedded"
   units-per-em="2048"
   font-weight="bold"
   font-style="normal"
   ascent="1852"
   descent="423"
   id="font-face90-90" />
   <missing-glyph
   horiz-adv-x="2048"
   d="M 0,0 L 2047,0 2047,2047 0,2047 0,0 Z"
   id="missing-glyph92-8" />
   <glyph
   unicode="y"
   horiz-adv-x="1139"
   d="M 584,241 L 834,1082 1128,1082 700,-57 C 646,-188 590,-281 532,-336 469,-395 386,-425 283,-425 216,-425 157,-421 106,-412 L 106,-212 C 141,-217 173,-220 202,-220 230,-220 255,-217 276,-211 297,-205 317,-195 334,-181 368,-153 399,-105 426,-37 L 444,11 16,1082 313,1082 584,241 Z"
   id="glyph94-8" />
   <glyph
   unicode="s"
   horiz-adv-x="1006"
   d="M 1055,316 C 1055,264 1044,217 1023,176 1001,135 969,100 928,71 887,42 836,19 776,4 716,-12 648,-20 571,-20 502,-20 440,-15 385,-5 330,5 281,22 240,45 198,68 163,97 135,134 107,171 86,216 72,270 L 319,307 C 327,277 338,253 352,234 366,215 383,201 404,191 425,181 449,174 477,171 504,168 536,166 571,166 603,166 633,168 661,172 688,175 712,182 733,191 753,200 769,212 780,229 791,245 797,265 797,290 797,318 789,340 773,357 756,373 734,386 706,397 677,407 644,416 606,424 567,431 526,440 483,450 438,460 393,472 349,486 305,500 266,519 231,543 196,567 168,598 147,635 126,672 115,718 115,775 115,826 125,872 145,913 165,953 194,987 233,1016 272,1044 320,1066 377,1081 434,1096 499,1103 573,1103 632,1103 686,1098 737,1087 788,1076 833,1058 873,1035 913,1011 947,981 974,944 1001,907 1019,863 1030,811 L 781,785 C 776,811 768,833 756,850 744,867 729,880 712,890 694,900 673,907 650,911 627,914 601,916 573,916 506,916 456,908 423,891 390,874 373,845 373,805 373,780 380,761 394,746 407,731 427,719 452,710 477,700 506,692 541,685 575,678 612,669 653,659 703,648 752,636 801,622 849,607 892,588 930,563 967,538 998,505 1021,466 1044,427 1055,377 1055,316 Z"
   id="glyph96-5" />
   <glyph
   unicode="r"
   horiz-adv-x="636"
   d="M 143,0 L 143,828 C 143,851 143,876 143,902 142,928 142,953 141,977 140,1000 139,1022 138,1041 137,1060 136,1073 135,1082 L 403,1082 C 404,1074 406,1060 407,1041 408,1021 410,999 411,976 412,953 414,930 415,907 416,884 416,865 416,851 L 420,851 C 434,890 448,926 462,957 476,988 493,1014 512,1036 531,1057 553,1074 580,1086 607,1097 640,1103 679,1103 696,1103 712,1102 729,1099 745,1096 757,1092 766,1088 L 766,853 C 748,857 730,861 712,864 693,867 671,868 646,868 576,868 522,840 483,783 444,726 424,642 424,531 L 424,0 143,0 Z"
   id="glyph98-0" />
   <glyph
   unicode="p"
   horiz-adv-x="1033"
   d="M 1167,546 C 1167,464 1159,388 1143,319 1126,250 1101,190 1067,140 1033,90 990,51 938,23 885,-6 823,-20 752,-20 720,-20 688,-17 657,-10 625,-3 595,8 566,23 537,38 511,57 487,82 462,106 441,136 424,172 L 418,172 C 419,169 419,160 420,147 421,134 421,118 422,101 423,83 423,64 424,45 424,25 424,7 424,-10 L 424,-425 143,-425 143,833 C 143,888 142,938 141,981 139,1024 137,1058 135,1082 L 408,1082 C 409,1077 411,1068 413,1055 414,1042 416,1026 417,1009 418,992 418,974 419,955 420,936 420,920 420,906 L 424,906 C 458,977 505,1028 564,1059 623,1090 692,1105 770,1105 839,1105 898,1091 948,1063 998,1035 1039,996 1072,947 1104,898 1128,839 1144,771 1159,702 1167,627 1167,546 Z M 874,546 C 874,669 855,761 818,821 781,880 725,910 651,910 623,910 595,904 568,893 540,881 515,861 494,833 472,804 454,766 441,719 427,671 420,611 420,538 420,467 427,409 440,362 453,315 471,277 493,249 514,221 539,201 566,190 593,178 621,172 649,172 685,172 717,179 745,194 773,208 797,230 816,261 835,291 849,330 859,377 869,424 874,481 874,546 Z"
   id="glyph100-9" />
   <glyph
   unicode="o"
   horiz-adv-x="1113"
   d="M 1171,542 C 1171,459 1160,384 1137,315 1114,246 1079,187 1033,138 987,88 930,49 861,22 792,-6 712,-20 621,-20 533,-20 455,-6 388,21 321,48 264,87 219,136 173,185 138,245 115,314 92,383 80,459 80,542 80,623 91,697 114,766 136,834 170,893 215,943 260,993 317,1032 386,1060 455,1088 535,1102 627,1102 724,1102 807,1088 876,1060 945,1032 1001,993 1045,944 1088,894 1120,835 1141,767 1161,698 1171,623 1171,542 Z M 877,542 C 877,671 856,764 814,822 772,880 711,909 631,909 548,909 485,880 441,821 397,762 375,669 375,542 375,477 381,422 393,375 404,328 421,290 442,260 463,230 489,208 519,194 549,179 582,172 618,172 659,172 696,179 729,194 761,208 788,230 810,260 832,290 849,328 860,375 871,422 877,477 877,542 Z"
   id="glyph102-6" />
   <glyph
   unicode="i"
   horiz-adv-x="292"
   d="M 143,1277 L 143,1484 424,1484 424,1277 143,1277 Z M 143,0 L 143,1082 424,1082 424,0 143,0 Z"
   id="glyph104-3" />
   <glyph
   unicode="e"
   horiz-adv-x="1007"
   d="M 586,-20 C 508,-20 438,-8 376,15 313,38 260,73 216,120 172,167 138,226 115,297 92,368 80,451 80,546 80,649 94,736 122,807 149,878 187,935 234,979 281,1022 335,1054 396,1073 457,1092 522,1102 590,1102 675,1102 748,1087 809,1058 869,1028 918,986 957,933 996,880 1024,816 1042,742 1060,667 1069,585 1069,495 L 1069,487 375,487 C 375,442 379,400 387,361 395,322 408,288 426,260 444,231 467,209 496,193 525,176 559,168 600,168 649,168 690,179 721,200 752,221 775,253 788,297 L 1053,274 C 1041,243 1024,211 1003,176 981,141 952,110 916,81 880,52 835,28 782,9 728,-10 663,-20 586,-20 Z M 586,925 C 557,925 531,920 506,911 481,901 459,886 441,865 422,844 407,816 396,783 385,750 378,710 377,663 L 797,663 C 792,750 771,816 734,860 697,903 648,925 586,925 Z"
   id="glyph106-85" />
   <glyph
   unicode="c"
   horiz-adv-x="1007"
   d="M 594,-20 C 508,-20 433,-7 369,20 304,47 251,84 208,133 165,182 133,240 112,309 91,377 80,452 80,535 80,625 92,705 115,776 138,846 172,905 216,954 260,1002 314,1039 379,1064 443,1089 516,1102 598,1102 668,1102 730,1093 785,1074 839,1055 886,1030 925,998 964,965 996,927 1021,883 1045,839 1062,792 1071,741 L 788,727 C 780,782 760,827 728,860 696,893 651,909 592,909 517,909 462,878 427,816 392,754 375,664 375,546 375,297 449,172 596,172 649,172 694,189 730,223 766,256 788,306 797,373 L 1079,360 C 1072,310 1057,262 1034,217 1010,171 978,131 938,96 897,61 848,33 791,12 734,-9 668,-20 594,-20 Z"
   id="glyph108-6" />
   <glyph
   unicode="b"
   horiz-adv-x="1033"
   d="M 1167,545 C 1167,463 1159,388 1143,319 1126,250 1101,190 1067,140 1033,89 990,50 938,22 885,-6 823,-20 752,-20 720,-20 688,-17 656,-10 624,-3 594,8 565,23 536,38 510,58 486,83 462,108 441,138 424,174 L 422,174 C 422,160 422,144 421,126 420,108 418,91 417,74 416,57 414,41 413,28 411,15 409,5 408,0 L 135,0 C 137,23 139,57 141,100 142,143 143,192 143,247 L 143,1484 424,1484 424,1070 C 424,1049 424,1028 424,1008 423,987 423,968 422,951 421,931 421,912 420,894 L 424,894 C 458,969 505,1022 564,1054 623,1086 692,1102 770,1102 839,1102 899,1088 949,1061 999,1033 1040,994 1073,945 1105,895 1129,836 1144,768 1159,700 1167,626 1167,545 Z M 874,545 C 874,668 856,759 820,818 784,877 728,907 653,907 624,907 596,901 568,890 540,879 515,859 493,831 471,802 453,764 440,717 427,669 420,609 420,536 420,465 427,407 440,360 453,313 471,276 492,248 513,220 538,200 566,189 594,178 622,172 651,172 722,172 777,202 816,261 855,320 874,414 874,545 Z"
   id="glyph110-1" />
   <glyph
   unicode="a"
   horiz-adv-x="1112"
   d="M 393,-20 C 341,-20 295,-13 254,2 213,16 178,37 149,65 120,92 98,126 83,167 68,208 60,254 60,306 60,370 71,424 94,468 116,511 146,547 185,574 224,601 269,620 321,633 373,645 428,651 487,652 L 720,656 720,711 C 720,750 717,783 710,810 703,836 692,857 679,874 666,891 649,903 630,910 610,917 587,920 562,920 539,920 518,918 500,913 481,908 465,900 452,889 439,877 428,861 420,842 411,822 405,797 402,767 L 109,781 C 117,828 132,872 153,911 174,950 204,983 242,1012 279,1041 326,1063 381,1079 436,1094 500,1102 574,1102 641,1102 701,1094 754,1077 807,1060 851,1036 888,1003 925,970 953,929 972,881 991,833 1001,777 1001,714 L 1001,320 C 1001,295 1002,272 1005,252 1007,232 1011,215 1018,202 1024,188 1033,178 1045,171 1056,164 1071,160 1090,160 1111,160 1132,162 1152,166 L 1152,14 C 1135,10 1120,6 1107,3 1094,0 1080,-3 1067,-5 1054,-7 1040,-9 1025,-10 1010,-11 992,-12 972,-12 901,-12 849,5 816,40 782,75 762,126 755,193 L 749,193 C 712,126 664,73 606,36 547,-1 476,-20 393,-20 Z M 720,501 L 576,499 C 546,498 518,495 491,492 464,488 440,480 420,469 399,457 383,440 371,418 359,396 353,366 353,328 353,277 365,239 389,214 412,189 444,176 483,176 519,176 552,184 581,199 610,214 635,235 656,260 676,285 692,313 703,346 714,379 720,412 720,446 L 720,501 Z"
   id="glyph112-1" />
   <glyph
   unicode="R"
   horiz-adv-x="1324"
   d="M 1105,0 L 778,535 432,535 432,0 137,0 137,1409 841,1409 C 929,1409 1006,1399 1072,1380 1137,1360 1192,1332 1236,1296 1280,1259 1313,1215 1335,1164 1356,1112 1367,1054 1367,989 1367,936 1359,888 1344,845 1328,801 1306,762 1279,728 1251,694 1218,666 1180,643 1142,620 1101,603 1056,592 L 1437,0 1105,0 Z M 1070,977 C 1070,1046 1048,1097 1003,1130 958,1163 893,1180 810,1180 L 432,1180 432,764 818,764 C 862,764 900,769 932,780 963,790 989,805 1010,824 1030,843 1045,865 1055,891 1065,917 1070,946 1070,977 Z"
   id="glyph114-5" />
   <glyph
   unicode="P"
   horiz-adv-x="1165"
   d="M 1296,963 C 1296,902 1286,844 1266,788 1245,731 1214,681 1172,638 1130,595 1077,560 1012,535 947,509 871,496 782,496 L 432,496 432,0 137,0 137,1409 770,1409 C 860,1409 938,1398 1004,1377 1070,1355 1125,1324 1168,1285 1211,1246 1244,1199 1265,1144 1286,1089 1296,1029 1296,963 Z M 999,958 C 999,1031 977,1086 934,1124 890,1161 824,1180 737,1180 L 432,1180 432,723 745,723 C 789,723 827,729 859,740 890,751 917,767 938,788 959,809 974,834 984,863 994,892 999,923 999,958 Z"
   id="glyph116-9" />
   <glyph
   unicode="2"
   horiz-adv-x="1006"
   d="M 71,0 L 71,195 C 103,265 142,328 188,385 234,441 282,493 333,540 383,587 433,630 483,671 532,711 577,750 617,788 656,825 688,863 713,901 738,939 750,979 750,1022 750,1085 734,1131 703,1161 672,1191 626,1206 565,1206 505,1206 459,1190 428,1158 396,1125 375,1077 366,1012 L 83,1028 C 90,1083 103,1135 124,1184 145,1233 174,1275 213,1312 251,1349 299,1378 357,1399 414,1420 483,1430 563,1430 639,1430 706,1421 765,1404 824,1386 873,1360 913,1326 953,1292 983,1251 1004,1202 1025,1153 1035,1097 1035,1034 1035,968 1022,908 996,855 970,802 937,753 896,708 855,663 810,620 761,581 711,542 663,503 616,466 569,429 527,391 489,353 450,315 422,274 403,231 L 1057,231 1057,0 71,0 Z"
   id="glyph118-8" />
   <glyph
   unicode="0"
   horiz-adv-x="980"
   d="M 1055,705 C 1055,570 1043,457 1018,365 993,272 959,198 916,141 872,84 820,43 761,18 701,-7 636,-20 565,-20 494,-20 429,-8 370,17 311,42 260,83 217,140 174,197 141,271 117,364 93,456 81,570 81,705 81,847 93,965 117,1058 140,1151 174,1225 217,1280 260,1335 312,1374 373,1397 433,1419 500,1430 573,1430 642,1430 706,1419 765,1397 824,1374 875,1335 918,1280 961,1225 994,1151 1019,1058 1043,965 1055,847 1055,705 Z M 773,705 C 773,804 769,887 762,952 755,1017 743,1068 727,1107 711,1145 690,1172 665,1187 639,1202 608,1210 571,1210 532,1210 499,1202 472,1187 445,1171 424,1144 408,1105 391,1066 380,1015 373,950 366,885 362,803 362,705 362,608 366,528 373,463 380,398 392,347 408,308 424,269 445,241 471,225 497,209 529,201 567,201 604,201 635,209 661,225 687,241 708,269 725,308 742,347 754,398 762,463 769,528 773,608 773,705 Z"
   id="glyph120-4" />
   <glyph
   unicode=")"
   horiz-adv-x="583"
   d="M 2,-425 C 55,-347 101,-270 139,-196 177,-120 208,-44 233,33 257,110 275,190 286,272 297,353 303,439 303,530 303,620 297,706 286,788 275,869 257,949 233,1026 208,1103 177,1180 139,1255 101,1330 55,1407 2,1484 L 283,1484 C 334,1410 379,1337 416,1264 453,1191 484,1116 509,1039 533,962 551,882 563,799 574,716 580,626 580,531 580,436 574,347 563,264 551,180 533,99 509,22 484,-55 453,-131 416,-204 379,-277 334,-351 283,-425 L 2,-425 Z"
   id="glyph122-8" />
   <glyph
   unicode="("
   horiz-adv-x="610"
   d="M 399,-425 C 348,-351 303,-277 266,-204 229,-131 198,-55 174,22 149,99 131,180 120,264 108,347 102,436 102,531 102,626 108,716 120,799 131,882 149,962 174,1039 198,1116 229,1191 266,1264 303,1337 348,1410 399,1484 L 680,1484 C 627,1407 581,1330 543,1255 505,1180 474,1103 450,1026 425,949 407,869 396,788 385,706 379,620 379,530 379,439 385,353 396,272 407,190 425,110 450,33 474,-44 505,-120 543,-196 581,-270 627,-347 680,-425 L 399,-425 Z"
   id="glyph124-1" />
   <glyph
   unicode=" "
   horiz-adv-x="556"
   id="glyph126-0" />
  </font><font
   id="EmbeddedFont_4-3"
   horiz-adv-x="2048"
   horiz-origin-x="0"
   horiz-origin-y="0"
   vert-origin-x="512"
   vert-origin-y="768"
   vert-adv-y="1024">
   <font-face
   font-family="LucidaGrande embedded"
   units-per-em="2048"
   font-weight="normal"
   font-style="normal"
   ascent="2170"
   descent="609"
   id="font-face131-0" />
   <missing-glyph
   horiz-adv-x="2048"
   d="M 0,0 L 2047,0 2047,2047 0,2047 0,0 Z"
   id="missing-glyph133-4" />
   <glyph
   unicode="s"
   horiz-adv-x="769"
   d="M 842,275 C 842,183 808,111 740,59 673,6 571,-20 436,-20 361,-20 293,-13 231,2 170,16 119,32 80,50 L 80,111 C 189,58 308,31 436,31 560,31 650,53 705,97 759,140 786,200 786,275 786,328 772,371 742,403 713,435 673,461 624,481 574,501 519,519 459,537 396,556 338,576 286,595 233,615 191,643 161,679 130,716 115,767 115,834 115,919 148,984 215,1032 282,1079 373,1102 487,1102 552,1102 612,1096 668,1085 724,1073 773,1059 815,1041 L 793,990 C 754,1009 708,1024 652,1035 597,1046 542,1051 487,1051 389,1051 312,1033 255,997 198,961 170,906 170,834 170,778 184,735 212,706 240,677 278,654 325,637 372,621 423,604 477,586 537,567 595,547 651,525 707,503 753,473 788,436 824,398 842,345 842,275 Z"
   id="glyph135-4" />
   <glyph
   unicode="p"
   horiz-adv-x="901"
   d="M 641,1102 C 784,1102 893,1055 967,962 1040,868 1077,732 1077,551 1077,370 1037,229 957,129 878,30 765,-20 621,-20 513,-20 428,5 367,56 305,106 263,167 240,238 L 236,238 C 238,192 240,146 240,102 240,58 240,13 240,-30 L 240,-475 186,-475 186,1082 231,1082 236,824 240,824 C 255,871 279,917 313,959 347,1001 392,1036 446,1062 501,1089 566,1102 641,1102 Z M 641,1051 C 510,1051 410,1006 342,917 274,827 240,703 240,543 L 240,537 C 240,364 274,236 343,154 412,72 505,31 621,31 746,31 844,75 915,162 986,250 1022,379 1022,551 1022,721 990,846 926,928 862,1010 767,1051 641,1051 Z"
   id="glyph137-4" />
   <glyph
   unicode="n"
   horiz-adv-x="847"
   d="M 633,1102 C 750,1102 841,1070 905,1006 969,942 1001,843 1001,709 L 1001,0 948,0 948,707 C 948,827 921,914 865,969 810,1024 733,1051 633,1051 515,1051 420,1016 347,945 274,875 238,766 238,619 L 238,0 184,0 184,1082 227,1082 236,854 240,854 C 256,897 280,937 312,974 344,1012 387,1042 439,1066 492,1090 556,1102 633,1102 Z"
   id="glyph139-4" />
   <glyph
   unicode="i"
   horiz-adv-x="133"
   d="M 211,1477 C 236,1477 251,1471 257,1458 263,1445 266,1430 266,1414 266,1396 263,1381 257,1368 251,1356 236,1350 211,1350 190,1350 177,1356 170,1368 163,1381 160,1396 160,1414 160,1430 163,1445 170,1458 177,1471 190,1477 211,1477 Z M 238,1082 L 238,0 184,0 184,1082 238,1082 Z"
   id="glyph141-7" />
   <glyph
   unicode="U"
   horiz-adv-x="1086"
   d="M 1266,517 C 1266,395 1243,295 1197,216 1151,136 1088,77 1008,38 927,-1 834,-20 727,-20 558,-20 427,26 334,117 241,209 195,343 195,521 L 195,1463 248,1463 248,525 C 248,361 290,238 374,155 458,73 576,31 729,31 875,31 992,70 1080,149 1168,228 1212,345 1212,500 L 1212,1463 1266,1463 1266,517 Z"
   id="glyph143-6" />
   <glyph
   unicode="T"
   horiz-adv-x="1033"
   d="M 543,-1 L 489,-1 489,1411 4,1411 4,1462 1030,1462 1030,1411 543,1411 543,-1 Z"
   id="glyph145-3" />
   <glyph
   unicode="S"
   horiz-adv-x="900"
   d="M 1001,369 C 1001,282 979,209 935,151 891,93 831,50 757,22 682,-6 601,-20 512,-20 418,-20 340,-14 280,-1 219,12 164,26 115,39 L 115,99 C 169,80 229,64 294,51 359,38 433,31 516,31 594,31 665,43 730,67 795,91 847,128 887,178 926,227 946,292 946,371 946,439 930,494 897,536 864,578 818,612 757,640 696,668 623,695 539,721 459,747 389,775 328,804 266,834 218,873 183,921 148,970 131,1034 131,1115 131,1196 152,1265 194,1319 235,1374 291,1415 361,1442 432,1470 510,1483 596,1483 660,1483 723,1477 783,1466 844,1454 905,1435 965,1407 L 942,1360 C 879,1388 819,1406 761,1417 703,1427 646,1432 592,1432 520,1432 453,1421 391,1399 330,1377 280,1344 243,1298 205,1252 186,1192 186,1119 186,1045 203,986 238,943 272,899 318,864 376,839 434,814 498,790 567,768 655,741 731,712 796,681 861,651 911,611 947,563 983,514 1001,450 1001,369 Z"
   id="glyph147-1" />
   <glyph
   unicode="R"
   horiz-adv-x="954"
   d="M 537,1462 C 650,1462 745,1451 822,1428 899,1406 958,1366 997,1310 1037,1254 1057,1176 1057,1075 1057,967 1028,879 970,812 912,744 831,697 727,669 L 1128,-1 1061,-1 670,655 264,655 264,-1 211,-1 211,1462 537,1462 Z M 526,1411 L 264,1411 264,706 598,706 C 717,706 814,738 889,802 964,867 1001,957 1001,1073 1001,1160 984,1229 949,1278 914,1327 862,1361 792,1381 721,1401 633,1411 526,1411 Z"
   id="glyph149-7" />
   <glyph
   unicode="P"
   horiz-adv-x="874"
   d="M 553,1463 C 715,1463 840,1432 927,1370 1013,1308 1057,1206 1057,1063 1057,958 1035,873 991,808 948,744 886,697 806,668 726,639 632,625 524,625 L 264,625 264,1 211,1 211,1463 553,1463 Z M 545,1412 L 264,1412 264,676 520,676 C 616,676 700,687 772,710 844,733 901,772 941,828 981,884 1001,962 1001,1061 1001,1186 964,1275 890,1330 815,1384 700,1412 545,1412 Z"
   id="glyph151-5" />
   <glyph
   unicode="O"
   horiz-adv-x="1324"
   d="M 1413,734 C 1413,586 1390,456 1342,342 1295,229 1224,140 1129,76 1035,12 915,-20 770,-20 628,-20 510,12 415,77 320,142 249,231 201,345 153,458 129,588 129,736 129,883 154,1013 205,1126 255,1238 329,1326 427,1390 525,1453 643,1485 782,1485 984,1485 1140,1419 1249,1288 1359,1156 1413,971 1413,734 Z M 184,736 C 184,599 205,478 248,372 290,266 355,183 442,122 530,62 640,31 772,31 906,31 1016,61 1103,120 1190,180 1254,262 1295,368 1337,474 1358,596 1358,734 1358,956 1308,1129 1208,1251 1109,1373 967,1434 782,1434 649,1434 537,1404 449,1344 360,1284 294,1201 250,1096 206,991 184,871 184,736 Z"
   id="glyph153-9" />
   <glyph
   unicode="I"
   horiz-adv-x="371"
   d="M 457,0 L 125,0 125,41 264,47 264,1413 125,1422 125,1463 457,1463 457,1422 317,1413 317,47 457,41 457,0 Z"
   id="glyph155-6" />
   <glyph
   unicode="G"
   horiz-adv-x="1218"
   d="M 752,717 L 1309,717 1309,74 C 1243,43 1171,19 1093,4 1014,-12 935,-20 854,-20 618,-20 438,45 314,175 191,304 129,489 129,727 129,872 159,1002 218,1116 278,1230 363,1320 473,1387 584,1454 715,1487 868,1487 946,1487 1020,1480 1091,1466 1161,1451 1228,1428 1292,1397 L 1268,1346 C 1198,1380 1130,1404 1064,1417 998,1430 932,1436 866,1436 726,1436 604,1405 502,1344 399,1282 321,1198 266,1092 212,985 184,865 184,730 184,564 212,431 267,328 323,226 401,151 502,103 603,55 722,31 858,31 937,31 1010,38 1076,51 1142,64 1202,81 1255,103 L 1255,666 752,666 752,717 Z"
   id="glyph157-2" />
   <glyph
   unicode="C"
   horiz-adv-x="1086"
   d="M 829,1432 C 693,1432 577,1402 480,1342 384,1282 311,1200 260,1095 210,991 184,872 184,738 184,597 207,474 252,367 297,261 365,178 455,119 545,61 657,31 791,31 870,31 940,37 1001,48 1063,59 1118,73 1167,91 L 1167,43 C 1122,26 1068,11 1006,-2 943,-14 871,-20 791,-20 646,-20 524,12 426,75 328,139 254,227 204,340 154,454 129,586 129,738 129,880 157,1007 213,1120 269,1232 349,1321 454,1386 558,1451 683,1483 829,1483 962,1483 1083,1458 1194,1407 L 1174,1356 C 1115,1388 1057,1408 999,1418 942,1427 885,1432 829,1432 Z"
   id="glyph159-1" />
   <glyph
   unicode="A"
   horiz-adv-x="1192"
   d="M 1124,0 L 911,555 276,555 57,0 0,0 578,1467 629,1467 1182,0 1124,0 Z M 666,1217 C 657,1240 648,1266 637,1295 626,1325 614,1359 600,1397 591,1367 580,1336 567,1304 555,1272 543,1242 532,1215 L 295,606 891,606 666,1217 Z"
   id="glyph161-7" />
   <glyph
   unicode=":"
   horiz-adv-x="133"
   d="M 174,1027 C 174,1043 177,1058 184,1071 191,1084 205,1090 225,1090 250,1090 265,1084 271,1071 278,1058 281,1043 281,1027 281,1009 278,994 271,981 265,969 250,963 225,963 205,963 191,969 184,981 177,994 174,1009 174,1027 Z M 174,48 C 174,64 177,79 184,92 191,105 205,111 225,111 250,111 265,105 271,92 278,79 281,64 281,48 281,30 278,15 271,2 265,-10 250,-16 225,-16 205,-16 191,-10 184,2 177,15 174,30 174,48 Z"
   id="glyph163-8" />
   <glyph
   unicode="4"
   horiz-adv-x="1139"
   d="M 1147,397 L 872,397 872,-1 819,-1 819,397 51,397 51,434 815,1471 872,1471 872,448 1147,448 1147,397 Z M 819,1073 C 819,1132 819,1179 819,1215 819,1252 820,1284 820,1312 821,1340 821,1371 821,1405 L 817,1405 C 794,1368 774,1337 758,1313 741,1288 717,1255 686,1212 L 123,448 819,448 819,1073 Z"
   id="glyph165-5" />
   <glyph
   unicode="2"
   horiz-adv-x="900"
   d="M 1006,0 L 121,0 121,47 580,533 C 646,602 702,666 747,724 791,782 825,841 848,901 871,961 883,1029 883,1104 883,1206 853,1287 795,1345 736,1403 654,1432 549,1432 490,1432 430,1421 369,1399 307,1377 249,1344 195,1301 L 164,1342 C 227,1394 292,1430 359,1451 427,1472 490,1483 549,1483 627,1483 695,1467 754,1435 812,1403 858,1358 890,1301 922,1245 938,1179 938,1104 938,1021 925,948 900,884 875,820 839,758 792,697 744,637 687,572 621,503 L 195,51 195,51 1006,51 1006,0 Z"
   id="glyph167-7" />
   <glyph
   unicode="0"
   horiz-adv-x="953"
   d="M 1038,738 C 1038,233 887,-20 584,-20 439,-20 327,42 247,166 167,291 127,481 127,738 127,880 142,1007 171,1120 200,1232 249,1321 316,1387 384,1452 474,1485 586,1485 702,1485 793,1453 858,1390 924,1326 970,1238 997,1126 1025,1013 1038,884 1038,738 Z M 182,738 C 182,497 216,320 284,204 351,89 451,31 584,31 724,31 826,89 889,205 952,321 983,499 983,738 983,877 972,999 949,1103 927,1208 887,1289 829,1347 772,1405 691,1434 586,1434 483,1434 403,1404 344,1344 285,1284 244,1202 219,1097 195,993 182,873 182,738 Z"
   id="glyph169-4" />
   <glyph
   unicode=","
   horiz-adv-x="213"
   d="M 256,213 C 241,138 222,58 200,-28 177,-114 152,-193 123,-264 L 78,-264 C 108,-164 132,-75 150,3 167,82 182,160 193,238 L 250,238 256,213 Z"
   id="glyph171-1" />
   <glyph
   unicode=" "
   horiz-adv-x="529"
   id="glyph173-8" />
  </font><font
   id="EmbeddedFont_5-59"
   horiz-adv-x="2048"
   horiz-origin-x="0"
   horiz-origin-y="0"
   vert-origin-x="512"
   vert-origin-y="768"
   vert-adv-y="1024">
   <font-face
   font-family="LucidaGrande-Bold embedded"
   units-per-em="2048"
   font-weight="normal"
   font-style="normal"
   ascent="2170"
   descent="609"
   id="font-face178-7" />
   <missing-glyph
   horiz-adv-x="2048"
   d="M 0,0 L 2047,0 2047,2047 0,2047 0,0 Z"
   id="missing-glyph180-5" />
   <glyph
   unicode="w"
   horiz-adv-x="1351"
   d="M 778,795 C 767,830 757,862 749,890 740,918 730,950 719,987 L 715,987 C 696,919 676,855 655,795 L 391,-2 346,-2 33,1080 92,1080 307,320 C 325,257 338,210 346,178 354,147 362,115 369,84 L 373,84 C 381,115 389,147 398,178 407,210 422,257 442,320 L 698,1080 741,1080 985,322 C 1016,222 1040,143 1055,84 L 1059,84 C 1063,115 1069,148 1078,181 1087,215 1099,261 1114,320 L 1317,1080 1370,1080 1081,-2 1036,-2 778,795 Z"
   id="glyph182-3" />
   <glyph
   unicode="r"
   horiz-adv-x="557"
   d="M 569,1098 C 602,1098 632,1096 658,1092 685,1088 711,1083 735,1076 L 723,1027 C 697,1033 673,1038 650,1042 628,1045 601,1047 569,1047 456,1047 373,1007 319,928 266,849 240,743 240,609 L 240,1 186,1 186,1082 236,1082 240,875 244,875 C 263,938 300,991 355,1034 411,1077 482,1098 569,1098 Z"
   id="glyph184-8" />
   <glyph
   unicode="o"
   horiz-adv-x="953"
   d="M 1055,541 C 1055,436 1038,341 1005,255 971,170 920,103 851,54 782,5 694,-20 586,-20 482,-20 396,5 327,54 258,103 206,170 172,254 138,339 121,435 121,541 121,713 163,850 247,951 331,1052 448,1102 598,1102 707,1102 795,1077 862,1027 929,978 978,910 1009,826 1039,741 1055,646 1055,541 Z M 176,541 C 176,441 191,353 221,276 251,199 297,139 357,96 418,53 494,31 586,31 681,31 759,53 820,97 881,140 926,201 955,278 985,355 999,443 999,541 999,635 986,721 959,798 933,875 890,937 831,982 773,1028 695,1051 598,1051 463,1051 359,1006 286,916 213,826 176,701 176,541 Z"
   id="glyph186-8" />
   <glyph
   unicode="n"
   horiz-adv-x="847"
   d="M 633,1102 C 750,1102 841,1070 905,1006 969,942 1001,843 1001,709 L 1001,0 948,0 948,707 C 948,827 921,914 865,969 810,1024 733,1051 633,1051 515,1051 420,1016 347,945 274,875 238,766 238,619 L 238,0 184,0 184,1082 227,1082 236,854 240,854 C 256,897 280,937 312,974 344,1012 387,1042 439,1066 492,1090 556,1102 633,1102 Z"
   id="glyph188-3" />
   <glyph
   unicode="i"
   horiz-adv-x="133"
   d="M 211,1477 C 236,1477 251,1471 257,1458 263,1445 266,1430 266,1414 266,1396 263,1381 257,1368 251,1356 236,1350 211,1350 190,1350 177,1356 170,1368 163,1381 160,1396 160,1414 160,1430 163,1445 170,1458 177,1471 190,1477 211,1477 Z M 238,1082 L 238,0 184,0 184,1082 238,1082 Z"
   id="glyph190-1" />
   <glyph
   unicode="e"
   horiz-adv-x="874"
   d="M 588,1102 C 681,1102 756,1080 813,1035 870,990 913,929 940,853 967,778 981,692 981,596 L 981,545 176,545 C 175,380 211,253 285,164 358,76 466,31 606,31 672,31 728,36 775,46 822,55 877,74 940,103 L 940,48 C 888,24 836,7 783,-4 731,-15 672,-20 606,-20 493,-20 400,4 329,52 257,99 204,165 171,248 138,332 121,426 121,531 121,633 138,728 172,814 206,901 258,971 327,1023 396,1076 483,1102 588,1102 Z M 588,1051 C 473,1051 379,1012 306,935 233,858 190,745 178,596 L 926,596 C 927,731 900,841 844,925 788,1009 702,1051 588,1051 Z"
   id="glyph192-8" />
   <glyph
   unicode="U"
   horiz-adv-x="1086"
   d="M 1266,517 C 1266,395 1243,295 1197,216 1151,136 1088,77 1008,38 927,-1 834,-20 727,-20 558,-20 427,26 334,117 241,209 195,343 195,521 L 195,1463 248,1463 248,525 C 248,361 290,238 374,155 458,73 576,31 729,31 875,31 992,70 1080,149 1168,228 1212,345 1212,500 L 1212,1463 1266,1463 1266,517 Z"
   id="glyph194-9" />
   <glyph
   unicode="S"
   horiz-adv-x="900"
   d="M 1001,369 C 1001,282 979,209 935,151 891,93 831,50 757,22 682,-6 601,-20 512,-20 418,-20 340,-14 280,-1 219,12 164,26 115,39 L 115,99 C 169,80 229,64 294,51 359,38 433,31 516,31 594,31 665,43 730,67 795,91 847,128 887,178 926,227 946,292 946,371 946,439 930,494 897,536 864,578 818,612 757,640 696,668 623,695 539,721 459,747 389,775 328,804 266,834 218,873 183,921 148,970 131,1034 131,1115 131,1196 152,1265 194,1319 235,1374 291,1415 361,1442 432,1470 510,1483 596,1483 660,1483 723,1477 783,1466 844,1454 905,1435 965,1407 L 942,1360 C 879,1388 819,1406 761,1417 703,1427 646,1432 592,1432 520,1432 453,1421 391,1399 330,1377 280,1344 243,1298 205,1252 186,1192 186,1119 186,1045 203,986 238,943 272,899 318,864 376,839 434,814 498,790 567,768 655,741 731,712 796,681 861,651 911,611 947,563 983,514 1001,450 1001,369 Z"
   id="glyph196-6" />
   <glyph
   unicode="P"
   horiz-adv-x="874"
   d="M 553,1463 C 715,1463 840,1432 927,1370 1013,1308 1057,1206 1057,1063 1057,958 1035,873 991,808 948,744 886,697 806,668 726,639 632,625 524,625 L 264,625 264,1 211,1 211,1463 553,1463 Z M 545,1412 L 264,1412 264,676 520,676 C 616,676 700,687 772,710 844,733 901,772 941,828 981,884 1001,962 1001,1061 1001,1186 964,1275 890,1330 815,1384 700,1412 545,1412 Z"
   id="glyph198-4" />
   <glyph
   unicode="B"
   horiz-adv-x="954"
   d="M 602,1462 C 781,1462 909,1433 987,1374 1065,1316 1104,1228 1104,1110 1104,1027 1079,954 1030,891 981,828 909,789 815,772 L 815,768 C 937,751 1021,711 1069,648 1117,586 1141,509 1141,416 1141,316 1118,236 1073,174 1028,113 966,68 888,41 809,14 720,0 621,0 L 211,0 211,1462 602,1462 Z M 621,795 C 906,795 1049,899 1049,1108 1049,1216 1013,1293 941,1340 869,1387 754,1411 596,1411 L 264,1411 264,795 621,795 Z M 264,744 L 264,51 637,51 C 776,51 886,80 966,138 1046,196 1085,288 1085,414 1085,499 1067,565 1029,613 992,660 938,694 867,714 797,734 713,744 614,744 L 264,744 Z"
   id="glyph200-3" />
   <glyph
   unicode=" "
   horiz-adv-x="529"
   id="glyph202-33" />
  </font><font
   id="EmbeddedFont_6-8"
   horiz-adv-x="2048"
   horiz-origin-x="0"
   horiz-origin-y="0"
   vert-origin-x="512"
   vert-origin-y="768"
   vert-adv-y="1024">
   <font-face
   font-family="Noto Sans embedded"
   units-per-em="2048"
   font-weight="normal"
   font-style="normal"
   ascent="2170"
   descent="609"
   id="font-face207-6" />
   <missing-glyph
   horiz-adv-x="2048"
   d="M 0,0 L 2047,0 2047,2047 0,2047 0,0 Z"
   id="missing-glyph209-0" />
   <glyph
   unicode="μ"
   horiz-adv-x="953"
   d="M 1102,1098 L 1102,0 956,0 928,148 918,148 C 883,93 839,52 784,23 730,-6 664,-20 588,-20 535,-20 489,-11 451,6 412,23 380,45 352,72 L 344,72 C 347,48 349,15 351,-26 353,-67 354,-116 354,-172 L 354,-491 174,-491 174,1098 354,1098 354,390 C 354,216 436,129 600,129 722,129 806,164 852,232 898,300 922,398 922,527 L 922,1098 1102,1098 Z"
   id="glyph211-48" />
  </font><inkscape:path-effect
   effect="fillet_chamfer"
   id="path-effect118-9"
   is_visible="true"
   lpeversion="1"
   nodesatellites_param="F,0,0,1,0,0.5,0,1 @ F,0,0,1,0,0.5,0,1 @ F,0,0,1,0,0.5,0,1 @ F,0,0,1,0,0.5,0,1 @ F,0,0,1,0,0.5,0,1 @ F,0,0,1,0,0.5,0,1 @ F,0,0,1,0,0.5,0,1 @ F,0,0,1,0,0.5,0,1"
   radius="0"
   unit="px"
   method="auto"
   mode="F"
   chamfer_steps="1"
   flexible="false"
   use_knot_distance="true"
   apply_no_radius="true"
   apply_with_radius="true"
   only_selected="false"
   hide_knots="false" /><inkscape:path-effect
   effect="fillet_chamfer"
   id="path-effect114-6"
   is_visible="true"
   lpeversion="1"
   nodesatellites_param="F,0,0,1,0,0,0,1 @ F,0,0,1,0,0,0,1 @ F,0,0,1,0,0,0,1 @ F,0,0,1,0,0,0,1 @ F,0,0,1,0,0,0,1 @ F,0,0,1,0,0,0,1 @ F,0,0,1,0,0,0,1 @ F,0,0,1,0,0,0,1 @ F,0,0,1,0,0,0,1 @ F,0,0,1,0,0,0,1 @ F,0,0,1,0,0,0,1 @ F,0,0,1,0,0,0,1"
   radius="0"
   unit="px"
   method="auto"
   mode="F"
   chamfer_steps="1"
   flexible="false"
   use_knot_distance="true"
   apply_no_radius="true"
   apply_with_radius="true"
   only_selected="false"
   hide_knots="false" /><inkscape:path-effect
   effect="fillet_chamfer"
   id="path-effect112-4"
   is_visible="true"
   lpeversion="1"
   nodesatellites_param="F,0,0,1,0,0.5,0,1 @ F,0,0,1,0,0.5,0,1 @ F,0,0,1,0,0.5,0,1 @ F,0,0,1,0,0.5,0,1 @ F,0,0,1,0,0.5,0,1 @ F,0,0,1,0,0.5,0,1 @ F,0,0,1,0,0.5,0,1 @ F,0,0,1,0,0.5,0,1"
   radius="0"
   unit="px"
   method="auto"
   mode="F"
   chamfer_steps="1"
   flexible="false"
   use_knot_distance="true"
   apply_no_radius="true"
   apply_with_radius="true"
   only_selected="false"
   hide_knots="false" /><inkscape:path-effect
   effect="fillet_chamfer"
   id="path-effect108-3"
   is_visible="true"
   lpeversion="1"
   nodesatellites_param="F,0,0,1,0,0,0,1 @ F,0,0,1,0,0,0,1 @ F,0,0,1,0,0,0,1 @ F,0,0,1,0,0,0,1 @ F,0,0,1,0,0,0,1 @ F,0,0,1,0,0,0,1 @ F,0,0,1,0,0,0,1 @ F,0,0,1,0,0,0,1 @ F,0,0,1,0,0,0,1 @ F,0,0,1,0,0,0,1 @ F,0,0,1,0,0,0,1 @ F,0,0,1,0,0,0,1"
   radius="0"
   unit="px"
   method="auto"
   mode="F"
   chamfer_steps="1"
   flexible="false"
   use_knot_distance="true"
   apply_no_radius="true"
   apply_with_radius="true"
   only_selected="false"
   hide_knots="false" /><inkscape:path-effect
   effect="fillet_chamfer"
   id="path-effect106-3"
   is_visible="true"
   lpeversion="1"
   nodesatellites_param="F,0,0,1,0,0.5,0,1 @ F,0,0,1,0,0.5,0,1 @ F,0,0,1,0,0.5,0,1 @ F,0,0,1,0,0.5,0,1 @ F,0,0,1,0,0.5,0,1 @ F,0,0,1,0,0.5,0,1 @ F,0,0,1,0,0.5,0,1 @ F,0,0,1,0,0.5,0,1"
   radius="0"
   unit="px"
   method="auto"
   mode="F"
   chamfer_steps="1"
   flexible="false"
   use_knot_distance="true"
   apply_no_radius="true"
   apply_with_radius="true"
   only_selected="false"
   hide_knots="false" /><inkscape:path-effect
   effect="fillet_chamfer"
   id="path-effect102-3"
   is_visible="true"
   lpeversion="1"
   nodesatellites_param="F,0,0,1,0,0,0,1 @ F,0,0,1,0,0,0,1 @ F,0,0,1,0,0,0,1 @ F,0,0,1,0,0,0,1 @ F,0,0,1,0,0,0,1 @ F,0,0,1,0,0,0,1 @ F,0,0,1,0,0,0,1 @ F,0,0,1,0,0,0,1 @ F,0,0,1,0,0,0,1 @ F,0,0,1,0,0,0,1 @ F,0,0,1,0,0,0,1 @ F,0,0,1,0,0,0,1"
   radius="0"
   unit="px"
   method="auto"
   mode="F"
   chamfer_steps="1"
   flexible="false"
   use_knot_distance="true"
   apply_no_radius="true"
   apply_with_radius="true"
   only_selected="false"
   hide_knots="false" /><inkscape:path-effect
   effect="fillet_chamfer"
   id="path-effect100-8"
   is_visible="true"
   lpeversion="1"
   nodesatellites_param="F,0,0,1,0,0.5,0,1 @ F,0,0,1,0,0.5,0,1 @ F,0,0,1,0,0.5,0,1 @ F,0,0,1,0,0.5,0,1 @ F,0,0,1,0,0.5,0,1 @ F,0,0,1,0,0.5,0,1 @ F,0,0,1,0,0.5,0,1 @ F,0,0,1,0,0.5,0,1"
   radius="0"
   unit="px"
   method="auto"
   mode="F"
   chamfer_steps="1"
   flexible="false"
   use_knot_distance="true"
   apply_no_radius="true"
   apply_with_radius="true"
   only_selected="false"
   hide_knots="false" /><inkscape:path-effect
   effect="fillet_chamfer"
   id="path-effect96-6"
   is_visible="true"
   lpeversion="1"
   nodesatellites_param="F,0,0,1,0,0,0,1 @ F,0,0,1,0,0,0,1 @ F,0,0,1,0,0,0,1 @ F,0,0,1,0,0,0,1 @ F,0,0,1,0,0,0,1 @ F,0,0,1,0,0,0,1 @ F,0,0,1,0,0,0,1 @ F,0,0,1,0,0,0,1 @ F,0,0,1,0,0,0,1 @ F,0,0,1,0,0,0,1 @ F,0,0,1,0,0,0,1 @ F,0,0,1,0,0,0,1"
   radius="0"
   unit="px"
   method="auto"
   mode="F"
   chamfer_steps="1"
   flexible="false"
   use_knot_distance="true"
   apply_no_radius="true"
   apply_with_radius="true"
   only_selected="false"
   hide_knots="false" /><inkscape:path-effect
   effect="fillet_chamfer"
   id="path-effect94-0"
   is_visible="true"
   lpeversion="1"
   nodesatellites_param="F,0,0,1,0,0.5,0,1 @ F,0,0,1,0,0.5,0,1 @ F,0,0,1,0,0.5,0,1 @ F,0,0,1,0,0.5,0,1 @ F,0,0,1,0,0.5,0,1 @ F,0,0,1,0,0.5,0,1 @ F,0,0,1,0,0.5,0,1 @ F,0,0,1,0,0.5,0,1"
   radius="0"
   unit="px"
   method="auto"
   mode="F"
   chamfer_steps="1"
   flexible="false"
   use_knot_distance="true"
   apply_no_radius="true"
   apply_with_radius="true"
   only_selected="false"
   hide_knots="false" /><inkscape:path-effect
   effect="fillet_chamfer"
   id="path-effect90-4"
   is_visible="true"
   lpeversion="1"
   nodesatellites_param="F,0,0,1,0,0,0,1 @ F,0,0,1,0,0,0,1 @ F,0,0,1,0,0,0,1 @ F,0,0,1,0,0,0,1 @ F,0,0,1,0,0,0,1 @ F,0,0,1,0,0,0,1 @ F,0,0,1,0,0,0,1 @ F,0,0,1,0,0,0,1 @ F,0,0,1,0,0,0,1 @ F,0,0,1,0,0,0,1 @ F,0,0,1,0,0,0,1 @ F,0,0,1,0,0,0,1"
   radius="0"
   unit="px"
   method="auto"
   mode="F"
   chamfer_steps="1"
   flexible="false"
   use_knot_distance="true"
   apply_no_radius="true"
   apply_with_radius="true"
   only_selected="false"
   hide_knots="false" /><inkscape:path-effect
   effect="fillet_chamfer"
   id="path-effect88-8"
   is_visible="true"
   lpeversion="1"
   nodesatellites_param="F,0,0,1,0,0.5,0,1 @ F,0,0,1,0,0.5,0,1 @ F,0,0,1,0,0.5,0,1 @ F,0,0,1,0,0.5,0,1 @ F,0,0,1,0,0.5,0,1 @ F,0,0,1,0,0.5,0,1 @ F,0,0,1,0,0.5,0,1 @ F,0,0,1,0,0.5,0,1"
   radius="0"
   unit="px"
   method="auto"
   mode="F"
   chamfer_steps="1"
   flexible="false"
   use_knot_distance="true"
   apply_no_radius="true"
   apply_with_radius="true"
   only_selected="false"
   hide_knots="false" /><inkscape:path-effect
   effect="fillet_chamfer"
   id="path-effect84-8"
   is_visible="true"
   lpeversion="1"
   nodesatellites_param="F,0,0,1,0,0,0,1 @ F,0,0,1,0,0,0,1 @ F,0,0,1,0,0,0,1 @ F,0,0,1,0,0,0,1 @ F,0,0,1,0,0,0,1 @ F,0,0,1,0,0,0,1 @ F,0,0,1,0,0,0,1 @ F,0,0,1,0,0,0,1 @ F,0,0,1,0,0,0,1 @ F,0,0,1,0,0,0,1 @ F,0,0,1,0,0,0,1 @ F,0,0,1,0,0,0,1"
   radius="0"
   unit="px"
   method="auto"
   mode="F"
   chamfer_steps="1"
   flexible="false"
   use_knot_distance="true"
   apply_no_radius="true"
   apply_with_radius="true"
   only_selected="false"
   hide_knots="false" /><inkscape:path-effect
   effect="fillet_chamfer"
   id="path-effect82-8"
   is_visible="true"
   lpeversion="1"
   nodesatellites_param="F,0,0,1,0,0.5,0,1 @ F,0,0,1,0,0.5,0,1 @ F,0,0,1,0,0.5,0,1 @ F,0,0,1,0,0.5,0,1 @ F,0,0,1,0,0.5,0,1 @ F,0,0,1,0,0.5,0,1 @ F,0,0,1,0,0.5,0,1 @ F,0,0,1,0,0.5,0,1"
   radius="0"
   unit="px"
   method="auto"
   mode="F"
   chamfer_steps="1"
   flexible="false"
   use_knot_distance="true"
   apply_no_radius="true"
   apply_with_radius="true"
   only_selected="false"
   hide_knots="false" /><inkscape:path-effect
   effect="fillet_chamfer"
   id="path-effect80-9"
   is_visible="true"
   lpeversion="1"
   nodesatellites_param="F,0,0,1,0,0,0,1 @ F,0,0,1,0,0,0,1 @ F,0,0,1,0,0,0,1 @ F,0,0,1,0,0,0,1 @ F,0,0,1,0,0,0,1 @ F,0,0,1,0,0,0,1 @ F,0,0,1,0,0,0,1 @ F,0,0,1,0,0,0,1 @ F,0,0,1,0,0,0,1 @ F,0,0,1,0,0,0,1 @ F,0,0,1,0,0,0,1 @ F,0,0,1,0,0,0,1"
   radius="0"
   unit="px"
   method="auto"
   mode="F"
   chamfer_steps="1"
   flexible="false"
   use_knot_distance="true"
   apply_no_radius="true"
   apply_with_radius="true"
   only_selected="false"
   hide_knots="false" /><inkscape:path-effect
   effect="fillet_chamfer"
   id="path-effect504-7"
   is_visible="true"
   lpeversion="1"
   nodesatellites_param="F,0,0,1,0,0.5,0,1 @ F,0,0,1,0,0.5,0,1 @ F,0,0,1,0,0.5,0,1 @ F,0,0,1,0,0.5,0,1 @ F,0,0,1,0,0.5,0,1 @ F,0,0,1,0,0.5,0,1 @ F,0,0,1,0,0.5,0,1 @ F,0,0,1,0,0.5,0,1"
   radius="0"
   unit="px"
   method="auto"
   mode="F"
   chamfer_steps="1"
   flexible="false"
   use_knot_distance="true"
   apply_no_radius="true"
   apply_with_radius="true"
   only_selected="false"
   hide_knots="false" /><inkscape:path-effect
   effect="fillet_chamfer"
   id="path-effect502-7"
   is_visible="true"
   lpeversion="1"
   nodesatellites_param="F,0,0,1,0,0,0,1 @ F,0,0,1,0,0,0,1 @ F,0,0,1,0,0,0,1 @ F,0,0,1,0,0,0,1 @ F,0,0,1,0,0,0,1 @ F,0,0,1,0,0,0,1 @ F,0,0,1,0,0,0,1 @ F,0,0,1,0,0,0,1 @ F,0,0,1,0,0,0,1 @ F,0,0,1,0,0,0,1 @ F,0,0,1,0,0,0,1 @ F,0,0,1,0,0,0,1"
   radius="0"
   unit="px"
   method="auto"
   mode="F"
   chamfer_steps="1"
   flexible="false"
   use_knot_distance="true"
   apply_no_radius="true"
   apply_with_radius="true"
   only_selected="false"
   hide_knots="false" /><inkscape:path-effect
   effect="fillet_chamfer"
   id="path-effect500-6"
   is_visible="true"
   lpeversion="1"
   nodesatellites_param="F,0,0,1,0,0.5,0,1 @ F,0,0,1,0,0.5,0,1 @ F,0,0,1,0,0.5,0,1 @ F,0,0,1,0,0.5,0,1 @ F,0,0,1,0,0.5,0,1 @ F,0,0,1,0,0.5,0,1 @ F,0,0,1,0,0.5,0,1 @ F,0,0,1,0,0.5,0,1"
   radius="0"
   unit="px"
   method="auto"
   mode="F"
   chamfer_steps="1"
   flexible="false"
   use_knot_distance="true"
   apply_no_radius="true"
   apply_with_radius="true"
   only_selected="false"
   hide_knots="false" /><inkscape:path-effect
   effect="fillet_chamfer"
   id="path-effect498-4"
   is_visible="true"
   lpeversion="1"
   nodesatellites_param="F,0,0,1,0,0,0,1 @ F,0,0,1,0,0,0,1 @ F,0,0,1,0,0,0,1 @ F,0,0,1,0,0,0,1 @ F,0,0,1,0,0,0,1 @ F,0,0,1,0,0,0,1 @ F,0,0,1,0,0,0,1 @ F,0,0,1,0,0,0,1 @ F,0,0,1,0,0,0,1 @ F,0,0,1,0,0,0,1 @ F,0,0,1,0,0,0,1 @ F,0,0,1,0,0,0,1"
   radius="0"
   unit="px"
   method="auto"
   mode="F"
   chamfer_steps="1"
   flexible="false"
   use_knot_distance="true"
   apply_no_radius="true"
   apply_with_radius="true"
   only_selected="false"
   hide_knots="false" /><inkscape:path-effect
   effect="fillet_chamfer"
   id="path-effect496-3"
   is_visible="true"
   lpeversion="1"
   nodesatellites_param="F,0,0,1,0,0.5,0,1 @ F,0,0,1,0,0.5,0,1 @ F,0,0,1,0,0.5,0,1 @ F,0,0,1,0,0.5,0,1 @ F,0,0,1,0,0.5,0,1 @ F,0,0,1,0,0.5,0,1 @ F,0,0,1,0,0.5,0,1 @ F,0,0,1,0,0.5,0,1"
   radius="0"
   unit="px"
   method="auto"
   mode="F"
   chamfer_steps="1"
   flexible="false"
   use_knot_distance="true"
   apply_no_radius="true"
   apply_with_radius="true"
   only_selected="false"
   hide_knots="false" /><inkscape:path-effect
   effect="fillet_chamfer"
   id="path-effect494-0"
   is_visible="true"
   lpeversion="1"
   nodesatellites_param="F,0,0,1,0,0,0,1 @ F,0,0,1,0,0,0,1 @ F,0,0,1,0,0,0,1 @ F,0,0,1,0,0,0,1 @ F,0,0,1,0,0,0,1 @ F,0,0,1,0,0,0,1 @ F,0,0,1,0,0,0,1 @ F,0,0,1,0,0,0,1 @ F,0,0,1,0,0,0,1 @ F,0,0,1,0,0,0,1 @ F,0,0,1,0,0,0,1 @ F,0,0,1,0,0,0,1"
   radius="0"
   unit="px"
   method="auto"
   mode="F"
   chamfer_steps="1"
   flexible="false"
   use_knot_distance="true"
   apply_no_radius="true"
   apply_with_radius="true"
   only_selected="false"
   hide_knots="false" /><inkscape:path-effect
   effect="fillet_chamfer"
   id="path-effect492-3"
   is_visible="true"
   lpeversion="1"
   nodesatellites_param="F,0,0,1,0,0.5,0,1 @ F,0,0,1,0,0.5,0,1 @ F,0,0,1,0,0.5,0,1 @ F,0,0,1,0,0.5,0,1 @ F,0,0,1,0,0.5,0,1 @ F,0,0,1,0,0.5,0,1 @ F,0,0,1,0,0.5,0,1 @ F,0,0,1,0,0.5,0,1"
   radius="0"
   unit="px"
   method="auto"
   mode="F"
   chamfer_steps="1"
   flexible="false"
   use_knot_distance="true"
   apply_no_radius="true"
   apply_with_radius="true"
   only_selected="false"
   hide_knots="false" /><inkscape:path-effect
   effect="fillet_chamfer"
   id="path-effect490-0"
   is_visible="true"
   lpeversion="1"
   nodesatellites_param="F,0,0,1,0,0,0,1 @ F,0,0,1,0,0,0,1 @ F,0,0,1,0,0,0,1 @ F,0,0,1,0,0,0,1 @ F,0,0,1,0,0,0,1 @ F,0,0,1,0,0,0,1 @ F,0,0,1,0,0,0,1 @ F,0,0,1,0,0,0,1 @ F,0,0,1,0,0,0,1 @ F,0,0,1,0,0,0,1 @ F,0,0,1,0,0,0,1 @ F,0,0,1,0,0,0,1"
   radius="0"
   unit="px"
   method="auto"
   mode="F"
   chamfer_steps="1"
   flexible="false"
   use_knot_distance="true"
   apply_no_radius="true"
   apply_with_radius="true"
   only_selected="false"
   hide_knots="false" /><inkscape:path-effect
   effect="fillet_chamfer"
   id="path-effect488-9"
   is_visible="true"
   lpeversion="1"
   nodesatellites_param="F,0,0,1,0,0.5,0,1 @ F,0,0,1,0,0.5,0,1 @ F,0,0,1,0,0.5,0,1 @ F,0,0,1,0,0.5,0,1 @ F,0,0,1,0,0.5,0,1 @ F,0,0,1,0,0.5,0,1 @ F,0,0,1,0,0.5,0,1 @ F,0,0,1,0,0.5,0,1"
   radius="0"
   unit="px"
   method="auto"
   mode="F"
   chamfer_steps="1"
   flexible="false"
   use_knot_distance="true"
   apply_no_radius="true"
   apply_with_radius="true"
   only_selected="false"
   hide_knots="false" /><inkscape:path-effect
   effect="fillet_chamfer"
   id="path-effect486-2"
   is_visible="true"
   lpeversion="1"
   nodesatellites_param="F,0,0,1,0,0,0,1 @ F,0,0,1,0,0,0,1 @ F,0,0,1,0,0,0,1 @ F,0,0,1,0,0,0,1 @ F,0,0,1,0,0,0,1 @ F,0,0,1,0,0,0,1 @ F,0,0,1,0,0,0,1 @ F,0,0,1,0,0,0,1 @ F,0,0,1,0,0,0,1 @ F,0,0,1,0,0,0,1 @ F,0,0,1,0,0,0,1 @ F,0,0,1,0,0,0,1"
   radius="0"
   unit="px"
   method="auto"
   mode="F"
   chamfer_steps="1"
   flexible="false"
   use_knot_distance="true"
   apply_no_radius="true"
   apply_with_radius="true"
   only_selected="false"
   hide_knots="false" /><inkscape:path-effect
   effect="fillet_chamfer"
   id="path-effect484-5"
   is_visible="true"
   lpeversion="1"
   nodesatellites_param="F,0,0,1,0,0.5,0,1 @ F,0,0,1,0,0.5,0,1 @ F,0,0,1,0,0.5,0,1 @ F,0,0,1,0,0.5,0,1 @ F,0,0,1,0,0.5,0,1 @ F,0,0,1,0,0.5,0,1 @ F,0,0,1,0,0.5,0,1 @ F,0,0,1,0,0.5,0,1"
   radius="0"
   unit="px"
   method="auto"
   mode="F"
   chamfer_steps="1"
   flexible="false"
   use_knot_distance="true"
   apply_no_radius="true"
   apply_with_radius="true"
   only_selected="false"
   hide_knots="false" /><inkscape:path-effect
   effect="fillet_chamfer"
   id="path-effect482-4"
   is_visible="true"
   lpeversion="1"
   nodesatellites_param="F,0,0,1,0,0,0,1 @ F,0,0,1,0,0,0,1 @ F,0,0,1,0,0,0,1 @ F,0,0,1,0,0,0,1 @ F,0,0,1,0,0,0,1 @ F,0,0,1,0,0,0,1 @ F,0,0,1,0,0,0,1 @ F,0,0,1,0,0,0,1 @ F,0,0,1,0,0,0,1 @ F,0,0,1,0,0,0,1 @ F,0,0,1,0,0,0,1 @ F,0,0,1,0,0,0,1"
   radius="0"
   unit="px"
   method="auto"
   mode="F"
   chamfer_steps="1"
   flexible="false"
   use_knot_distance="true"
   apply_no_radius="true"
   apply_with_radius="true"
   only_selected="false"
   hide_knots="false" /><inkscape:path-effect
   effect="fillet_chamfer"
   id="path-effect480-0"
   is_visible="true"
   lpeversion="1"
   nodesatellites_param="F,0,0,1,0,0.5,0,1 @ F,0,0,1,0,0.5,0,1 @ F,0,0,1,0,0.5,0,1 @ F,0,0,1,0,0.5,0,1 @ F,0,0,1,0,0.5,0,1 @ F,0,0,1,0,0.5,0,1 @ F,0,0,1,0,0.5,0,1 @ F,0,0,1,0,0.5,0,1"
   radius="0"
   unit="px"
   method="auto"
   mode="F"
   chamfer_steps="1"
   flexible="false"
   use_knot_distance="true"
   apply_no_radius="true"
   apply_with_radius="true"
   only_selected="false"
   hide_knots="false" /><inkscape:path-effect
   effect="fillet_chamfer"
   id="path-effect478-5"
   is_visible="true"
   lpeversion="1"
   nodesatellites_param="F,0,0,1,0,0,0,1 @ F,0,0,1,0,0,0,1 @ F,0,0,1,0,0,0,1 @ F,0,0,1,0,0,0,1 @ F,0,0,1,0,0,0,1 @ F,0,0,1,0,0,0,1 @ F,0,0,1,0,0,0,1 @ F,0,0,1,0,0,0,1 @ F,0,0,1,0,0,0,1 @ F,0,0,1,0,0,0,1 @ F,0,0,1,0,0,0,1 @ F,0,0,1,0,0,0,1"
   radius="0"
   unit="px"
   method="auto"
   mode="F"
   chamfer_steps="1"
   flexible="false"
   use_knot_distance="true"
   apply_no_radius="true"
   apply_with_radius="true"
   only_selected="false"
   hide_knots="false" /><inkscape:path-effect
   effect="fillet_chamfer"
   id="path-effect377-9"
   is_visible="true"
   lpeversion="1"
   nodesatellites_param="F,0,0,1,0,0.5,0,1 @ F,0,0,1,0,0.5,0,1 @ F,0,0,1,0,0.5,0,1 @ F,0,0,1,0,0.5,0,1 @ F,0,0,1,0,0.5,0,1 @ F,0,0,1,0,0.5,0,1 @ F,0,0,1,0,0.5,0,1 @ F,0,0,1,0,0.5,0,1"
   radius="0"
   unit="px"
   method="auto"
   mode="F"
   chamfer_steps="1"
   flexible="false"
   use_knot_distance="true"
   apply_no_radius="true"
   apply_with_radius="true"
   only_selected="false"
   hide_knots="false" /><inkscape:path-effect
   effect="fillet_chamfer"
   id="path-effect375-4"
   is_visible="true"
   lpeversion="1"
   nodesatellites_param="F,0,0,1,0,0,0,1 @ F,0,0,1,0,0,0,1 @ F,0,0,1,0,0,0,1 @ F,0,0,1,0,0,0,1 @ F,0,0,1,0,0,0,1 @ F,0,0,1,0,0,0,1 @ F,0,0,1,0,0,0,1 @ F,0,0,1,0,0,0,1 @ F,0,0,1,0,0,0,1 @ F,0,0,1,0,0,0,1 @ F,0,0,1,0,0,0,1 @ F,0,0,1,0,0,0,1"
   radius="0"
   unit="px"
   method="auto"
   mode="F"
   chamfer_steps="1"
   flexible="false"
   use_knot_distance="true"
   apply_no_radius="true"
   apply_with_radius="true"
   only_selected="false"
   hide_knots="false" /><inkscape:path-effect
   effect="fillet_chamfer"
   id="path-effect373-6"
   is_visible="true"
   lpeversion="1"
   nodesatellites_param="F,0,0,1,0,0.5,0,1 @ F,0,0,1,0,0.5,0,1 @ F,0,0,1,0,0.5,0,1 @ F,0,0,1,0,0.5,0,1 @ F,0,0,1,0,0.5,0,1 @ F,0,0,1,0,0.5,0,1 @ F,0,0,1,0,0.5,0,1 @ F,0,0,1,0,0.5,0,1"
   radius="0"
   unit="px"
   method="auto"
   mode="F"
   chamfer_steps="1"
   flexible="false"
   use_knot_distance="true"
   apply_no_radius="true"
   apply_with_radius="true"
   only_selected="false"
   hide_knots="false" /><inkscape:path-effect
   effect="fillet_chamfer"
   id="path-effect371-9"
   is_visible="true"
   lpeversion="1"
   nodesatellites_param="F,0,0,1,0,0,0,1 @ F,0,0,1,0,0,0,1 @ F,0,0,1,0,0,0,1 @ F,0,0,1,0,0,0,1 @ F,0,0,1,0,0,0,1 @ F,0,0,1,0,0,0,1 @ F,0,0,1,0,0,0,1 @ F,0,0,1,0,0,0,1 @ F,0,0,1,0,0,0,1 @ F,0,0,1,0,0,0,1 @ F,0,0,1,0,0,0,1 @ F,0,0,1,0,0,0,1"
   radius="0"
   unit="px"
   method="auto"
   mode="F"
   chamfer_steps="1"
   flexible="false"
   use_knot_distance="true"
   apply_no_radius="true"
   apply_with_radius="true"
   only_selected="false"
   hide_knots="false" /><inkscape:path-effect
   effect="fillet_chamfer"
   id="path-effect369-2"
   is_visible="true"
   lpeversion="1"
   nodesatellites_param="F,0,0,1,0,0.5,0,1 @ F,0,0,1,0,0.5,0,1 @ F,0,0,1,0,0.5,0,1 @ F,0,0,1,0,0.5,0,1 @ F,0,0,1,0,0.5,0,1 @ F,0,0,1,0,0.5,0,1 @ F,0,0,1,0,0.5,0,1 @ F,0,0,1,0,0.5,0,1"
   radius="0"
   unit="px"
   method="auto"
   mode="F"
   chamfer_steps="1"
   flexible="false"
   use_knot_distance="true"
   apply_no_radius="true"
   apply_with_radius="true"
   only_selected="false"
   hide_knots="false" /><inkscape:path-effect
   effect="fillet_chamfer"
   id="path-effect367-2"
   is_visible="true"
   lpeversion="1"
   nodesatellites_param="F,0,0,1,0,0,0,1 @ F,0,0,1,0,0,0,1 @ F,0,0,1,0,0,0,1 @ F,0,0,1,0,0,0,1 @ F,0,0,1,0,0,0,1 @ F,0,0,1,0,0,0,1 @ F,0,0,1,0,0,0,1 @ F,0,0,1,0,0,0,1 @ F,0,0,1,0,0,0,1 @ F,0,0,1,0,0,0,1 @ F,0,0,1,0,0,0,1 @ F,0,0,1,0,0,0,1"
   radius="0"
   unit="px"
   method="auto"
   mode="F"
   chamfer_steps="1"
   flexible="false"
   use_knot_distance="true"
   apply_no_radius="true"
   apply_with_radius="true"
   only_selected="false"
   hide_knots="false" /><inkscape:path-effect
   effect="fillet_chamfer"
   id="path-effect365-4"
   is_visible="true"
   lpeversion="1"
   nodesatellites_param="F,0,0,1,0,0.5,0,1 @ F,0,0,1,0,0.5,0,1 @ F,0,0,1,0,0.5,0,1 @ F,0,0,1,0,0.5,0,1 @ F,0,0,1,0,0.5,0,1 @ F,0,0,1,0,0.5,0,1 @ F,0,0,1,0,0.5,0,1 @ F,0,0,1,0,0.5,0,1"
   radius="0"
   unit="px"
   method="auto"
   mode="F"
   chamfer_steps="1"
   flexible="false"
   use_knot_distance="true"
   apply_no_radius="true"
   apply_with_radius="true"
   only_selected="false"
   hide_knots="false" /><inkscape:path-effect
   effect="fillet_chamfer"
   id="path-effect363-7"
   is_visible="true"
   lpeversion="1"
   nodesatellites_param="F,0,0,1,0,0,0,1 @ F,0,0,1,0,0,0,1 @ F,0,0,1,0,0,0,1 @ F,0,0,1,0,0,0,1 @ F,0,0,1,0,0,0,1 @ F,0,0,1,0,0,0,1 @ F,0,0,1,0,0,0,1 @ F,0,0,1,0,0,0,1 @ F,0,0,1,0,0,0,1 @ F,0,0,1,0,0,0,1 @ F,0,0,1,0,0,0,1 @ F,0,0,1,0,0,0,1"
   radius="0"
   unit="px"
   method="auto"
   mode="F"
   chamfer_steps="1"
   flexible="false"
   use_knot_distance="true"
   apply_no_radius="true"
   apply_with_radius="true"
   only_selected="false"
   hide_knots="false" /><inkscape:path-effect
   effect="fillet_chamfer"
   id="path-effect361-7"
   is_visible="true"
   lpeversion="1"
   nodesatellites_param="F,0,0,1,0,0.5,0,1 @ F,0,0,1,0,0.5,0,1 @ F,0,0,1,0,0.5,0,1 @ F,0,0,1,0,0.5,0,1 @ F,0,0,1,0,0.5,0,1 @ F,0,0,1,0,0.5,0,1 @ F,0,0,1,0,0.5,0,1 @ F,0,0,1,0,0.5,0,1"
   radius="0"
   unit="px"
   method="auto"
   mode="F"
   chamfer_steps="1"
   flexible="false"
   use_knot_distance="true"
   apply_no_radius="true"
   apply_with_radius="true"
   only_selected="false"
   hide_knots="false" /><inkscape:path-effect
   effect="fillet_chamfer"
   id="path-effect359-5"
   is_visible="true"
   lpeversion="1"
   nodesatellites_param="F,0,0,1,0,0,0,1 @ F,0,0,1,0,0,0,1 @ F,0,0,1,0,0,0,1 @ F,0,0,1,0,0,0,1 @ F,0,0,1,0,0,0,1 @ F,0,0,1,0,0,0,1 @ F,0,0,1,0,0,0,1 @ F,0,0,1,0,0,0,1 @ F,0,0,1,0,0,0,1 @ F,0,0,1,0,0,0,1 @ F,0,0,1,0,0,0,1 @ F,0,0,1,0,0,0,1"
   radius="0"
   unit="px"
   method="auto"
   mode="F"
   chamfer_steps="1"
   flexible="false"
   use_knot_distance="true"
   apply_no_radius="true"
   apply_with_radius="true"
   only_selected="false"
   hide_knots="false" /><inkscape:path-effect
   effect="fillet_chamfer"
   id="path-effect357-4"
   is_visible="true"
   lpeversion="1"
   nodesatellites_param="F,0,0,1,0,0.5,0,1 @ F,0,0,1,0,0.5,0,1 @ F,0,0,1,0,0.5,0,1 @ F,0,0,1,0,0.5,0,1 @ F,0,0,1,0,0.5,0,1 @ F,0,0,1,0,0.5,0,1 @ F,0,0,1,0,0.5,0,1 @ F,0,0,1,0,0.5,0,1"
   radius="0"
   unit="px"
   method="auto"
   mode="F"
   chamfer_steps="1"
   flexible="false"
   use_knot_distance="true"
   apply_no_radius="true"
   apply_with_radius="true"
   only_selected="false"
   hide_knots="false" /><inkscape:path-effect
   effect="fillet_chamfer"
   id="path-effect355-8"
   is_visible="true"
   lpeversion="1"
   nodesatellites_param="F,0,0,1,0,0,0,1 @ F,0,0,1,0,0,0,1 @ F,0,0,1,0,0,0,1 @ F,0,0,1,0,0,0,1 @ F,0,0,1,0,0,0,1 @ F,0,0,1,0,0,0,1 @ F,0,0,1,0,0,0,1 @ F,0,0,1,0,0,0,1 @ F,0,0,1,0,0,0,1 @ F,0,0,1,0,0,0,1 @ F,0,0,1,0,0,0,1 @ F,0,0,1,0,0,0,1"
   radius="0"
   unit="px"
   method="auto"
   mode="F"
   chamfer_steps="1"
   flexible="false"
   use_knot_distance="true"
   apply_no_radius="true"
   apply_with_radius="true"
   only_selected="false"
   hide_knots="false" /><inkscape:path-effect
   effect="fillet_chamfer"
   id="path-effect353-1"
   is_visible="true"
   lpeversion="1"
   nodesatellites_param="F,0,0,1,0,0.5,0,1 @ F,0,0,1,0,0.5,0,1 @ F,0,0,1,0,0.5,0,1 @ F,0,0,1,0,0.5,0,1 @ F,0,0,1,0,0.5,0,1 @ F,0,0,1,0,0.5,0,1 @ F,0,0,1,0,0.5,0,1 @ F,0,0,1,0,0.5,0,1"
   radius="0"
   unit="px"
   method="auto"
   mode="F"
   chamfer_steps="1"
   flexible="false"
   use_knot_distance="true"
   apply_no_radius="true"
   apply_with_radius="true"
   only_selected="false"
   hide_knots="false" /><inkscape:path-effect
   effect="fillet_chamfer"
   id="path-effect351-2"
   is_visible="true"
   lpeversion="1"
   nodesatellites_param="F,0,0,1,0,0,0,1 @ F,0,0,1,0,0,0,1 @ F,0,0,1,0,0,0,1 @ F,0,0,1,0,0,0,1 @ F,0,0,1,0,0,0,1 @ F,0,0,1,0,0,0,1 @ F,0,0,1,0,0,0,1 @ F,0,0,1,0,0,0,1 @ F,0,0,1,0,0,0,1 @ F,0,0,1,0,0,0,1 @ F,0,0,1,0,0,0,1 @ F,0,0,1,0,0,0,1"
   radius="0"
   unit="px"
   method="auto"
   mode="F"
   chamfer_steps="1"
   flexible="false"
   use_knot_distance="true"
   apply_no_radius="true"
   apply_with_radius="true"
   only_selected="false"
   hide_knots="false" /><inkscape:path-effect
   effect="fillet_chamfer"
   id="path-effect315-8"
   is_visible="true"
   lpeversion="1"
   nodesatellites_param="F,0,0,1,0,0.5,0,1 @ F,0,0,1,0,0.5,0,1 @ F,0,0,1,0,0.5,0,1 @ F,0,0,1,0,0.5,0,1 @ F,0,0,1,0,0.5,0,1 @ F,0,0,1,0,0.5,0,1 @ F,0,0,1,0,0.5,0,1 @ F,0,0,1,0,0.5,0,1"
   radius="0"
   unit="px"
   method="auto"
   mode="F"
   chamfer_steps="1"
   flexible="false"
   use_knot_distance="true"
   apply_no_radius="true"
   apply_with_radius="true"
   only_selected="false"
   hide_knots="false" /><inkscape:path-effect
   effect="fillet_chamfer"
   id="path-effect313-9"
   is_visible="true"
   lpeversion="1"
   nodesatellites_param="F,0,0,1,0,0,0,1 @ F,0,0,1,0,0,0,1 @ F,0,0,1,0,0,0,1 @ F,0,0,1,0,0,0,1 @ F,0,0,1,0,0,0,1 @ F,0,0,1,0,0,0,1 @ F,0,0,1,0,0,0,1 @ F,0,0,1,0,0,0,1 @ F,0,0,1,0,0,0,1 @ F,0,0,1,0,0,0,1 @ F,0,0,1,0,0,0,1 @ F,0,0,1,0,0,0,1"
   radius="0"
   unit="px"
   method="auto"
   mode="F"
   chamfer_steps="1"
   flexible="false"
   use_knot_distance="true"
   apply_no_radius="true"
   apply_with_radius="true"
   only_selected="false"
   hide_knots="false" /><inkscape:path-effect
   effect="fillet_chamfer"
   id="path-effect311-3"
   is_visible="true"
   lpeversion="1"
   nodesatellites_param="F,0,0,1,0,0.5,0,1 @ F,0,0,1,0,0.5,0,1 @ F,0,0,1,0,0.5,0,1 @ F,0,0,1,0,0.5,0,1 @ F,0,0,1,0,0.5,0,1 @ F,0,0,1,0,0.5,0,1 @ F,0,0,1,0,0.5,0,1 @ F,0,0,1,0,0.5,0,1"
   radius="0"
   unit="px"
   method="auto"
   mode="F"
   chamfer_steps="1"
   flexible="false"
   use_knot_distance="true"
   apply_no_radius="true"
   apply_with_radius="true"
   only_selected="false"
   hide_knots="false" /><inkscape:path-effect
   effect="fillet_chamfer"
   id="path-effect309-6"
   is_visible="true"
   lpeversion="1"
   nodesatellites_param="F,0,0,1,0,0,0,1 @ F,0,0,1,0,0,0,1 @ F,0,0,1,0,0,0,1 @ F,0,0,1,0,0,0,1 @ F,0,0,1,0,0,0,1 @ F,0,0,1,0,0,0,1 @ F,0,0,1,0,0,0,1 @ F,0,0,1,0,0,0,1 @ F,0,0,1,0,0,0,1 @ F,0,0,1,0,0,0,1 @ F,0,0,1,0,0,0,1 @ F,0,0,1,0,0,0,1"
   radius="0"
   unit="px"
   method="auto"
   mode="F"
   chamfer_steps="1"
   flexible="false"
   use_knot_distance="true"
   apply_no_radius="true"
   apply_with_radius="true"
   only_selected="false"
   hide_knots="false" /><inkscape:path-effect
   effect="fillet_chamfer"
   id="path-effect307-8"
   is_visible="true"
   lpeversion="1"
   nodesatellites_param="F,0,0,1,0,0.5,0,1 @ F,0,0,1,0,0.5,0,1 @ F,0,0,1,0,0.5,0,1 @ F,0,0,1,0,0.5,0,1 @ F,0,0,1,0,0.5,0,1 @ F,0,0,1,0,0.5,0,1 @ F,0,0,1,0,0.5,0,1 @ F,0,0,1,0,0.5,0,1"
   radius="0"
   unit="px"
   method="auto"
   mode="F"
   chamfer_steps="1"
   flexible="false"
   use_knot_distance="true"
   apply_no_radius="true"
   apply_with_radius="true"
   only_selected="false"
   hide_knots="false" /><inkscape:path-effect
   effect="fillet_chamfer"
   id="path-effect305-0"
   is_visible="true"
   lpeversion="1"
   nodesatellites_param="F,0,0,1,0,0,0,1 @ F,0,0,1,0,0,0,1 @ F,0,0,1,0,0,0,1 @ F,0,0,1,0,0,0,1 @ F,0,0,1,0,0,0,1 @ F,0,0,1,0,0,0,1 @ F,0,0,1,0,0,0,1 @ F,0,0,1,0,0,0,1 @ F,0,0,1,0,0,0,1 @ F,0,0,1,0,0,0,1 @ F,0,0,1,0,0,0,1 @ F,0,0,1,0,0,0,1"
   radius="0"
   unit="px"
   method="auto"
   mode="F"
   chamfer_steps="1"
   flexible="false"
   use_knot_distance="true"
   apply_no_radius="true"
   apply_with_radius="true"
   only_selected="false"
   hide_knots="false" /><inkscape:path-effect
   effect="fillet_chamfer"
   id="path-effect303-2"
   is_visible="true"
   lpeversion="1"
   nodesatellites_param="F,0,0,1,0,0.5,0,1 @ F,0,0,1,0,0.5,0,1 @ F,0,0,1,0,0.5,0,1 @ F,0,0,1,0,0.5,0,1 @ F,0,0,1,0,0.5,0,1 @ F,0,0,1,0,0.5,0,1 @ F,0,0,1,0,0.5,0,1 @ F,0,0,1,0,0.5,0,1"
   radius="0"
   unit="px"
   method="auto"
   mode="F"
   chamfer_steps="1"
   flexible="false"
   use_knot_distance="true"
   apply_no_radius="true"
   apply_with_radius="true"
   only_selected="false"
   hide_knots="false" /><inkscape:path-effect
   effect="fillet_chamfer"
   id="path-effect301-1"
   is_visible="true"
   lpeversion="1"
   nodesatellites_param="F,0,0,1,0,0,0,1 @ F,0,0,1,0,0,0,1 @ F,0,0,1,0,0,0,1 @ F,0,0,1,0,0,0,1 @ F,0,0,1,0,0,0,1 @ F,0,0,1,0,0,0,1 @ F,0,0,1,0,0,0,1 @ F,0,0,1,0,0,0,1 @ F,0,0,1,0,0,0,1 @ F,0,0,1,0,0,0,1 @ F,0,0,1,0,0,0,1 @ F,0,0,1,0,0,0,1"
   radius="0"
   unit="px"
   method="auto"
   mode="F"
   chamfer_steps="1"
   flexible="false"
   use_knot_distance="true"
   apply_no_radius="true"
   apply_with_radius="true"
   only_selected="false"
   hide_knots="false" /><inkscape:path-effect
   effect="fillet_chamfer"
   id="path-effect299-0"
   is_visible="true"
   lpeversion="1"
   nodesatellites_param="F,0,0,1,0,0.5,0,1 @ F,0,0,1,0,0.5,0,1 @ F,0,0,1,0,0.5,0,1 @ F,0,0,1,0,0.5,0,1 @ F,0,0,1,0,0.5,0,1 @ F,0,0,1,0,0.5,0,1 @ F,0,0,1,0,0.5,0,1 @ F,0,0,1,0,0.5,0,1"
   radius="0"
   unit="px"
   method="auto"
   mode="F"
   chamfer_steps="1"
   flexible="false"
   use_knot_distance="true"
   apply_no_radius="true"
   apply_with_radius="true"
   only_selected="false"
   hide_knots="false" /><inkscape:path-effect
   effect="fillet_chamfer"
   id="path-effect297-5"
   is_visible="true"
   lpeversion="1"
   nodesatellites_param="F,0,0,1,0,0,0,1 @ F,0,0,1,0,0,0,1 @ F,0,0,1,0,0,0,1 @ F,0,0,1,0,0,0,1 @ F,0,0,1,0,0,0,1 @ F,0,0,1,0,0,0,1 @ F,0,0,1,0,0,0,1 @ F,0,0,1,0,0,0,1 @ F,0,0,1,0,0,0,1 @ F,0,0,1,0,0,0,1 @ F,0,0,1,0,0,0,1 @ F,0,0,1,0,0,0,1"
   radius="0"
   unit="px"
   method="auto"
   mode="F"
   chamfer_steps="1"
   flexible="false"
   use_knot_distance="true"
   apply_no_radius="true"
   apply_with_radius="true"
   only_selected="false"
   hide_knots="false" /><inkscape:path-effect
   effect="fillet_chamfer"
   id="path-effect295-1"
   is_visible="true"
   lpeversion="1"
   nodesatellites_param="F,0,0,1,0,0.5,0,1 @ F,0,0,1,0,0.5,0,1 @ F,0,0,1,0,0.5,0,1 @ F,0,0,1,0,0.5,0,1 @ F,0,0,1,0,0.5,0,1 @ F,0,0,1,0,0.5,0,1 @ F,0,0,1,0,0.5,0,1 @ F,0,0,1,0,0.5,0,1"
   radius="0"
   unit="px"
   method="auto"
   mode="F"
   chamfer_steps="1"
   flexible="false"
   use_knot_distance="true"
   apply_no_radius="true"
   apply_with_radius="true"
   only_selected="false"
   hide_knots="false" /><inkscape:path-effect
   effect="fillet_chamfer"
   id="path-effect293-1"
   is_visible="true"
   lpeversion="1"
   nodesatellites_param="F,0,0,1,0,0,0,1 @ F,0,0,1,0,0,0,1 @ F,0,0,1,0,0,0,1 @ F,0,0,1,0,0,0,1 @ F,0,0,1,0,0,0,1 @ F,0,0,1,0,0,0,1 @ F,0,0,1,0,0,0,1 @ F,0,0,1,0,0,0,1 @ F,0,0,1,0,0,0,1 @ F,0,0,1,0,0,0,1 @ F,0,0,1,0,0,0,1 @ F,0,0,1,0,0,0,1"
   radius="0"
   unit="px"
   method="auto"
   mode="F"
   chamfer_steps="1"
   flexible="false"
   use_knot_distance="true"
   apply_no_radius="true"
   apply_with_radius="true"
   only_selected="false"
   hide_knots="false" /><inkscape:path-effect
   effect="fillet_chamfer"
   id="path-effect291-0"
   is_visible="true"
   lpeversion="1"
   nodesatellites_param="F,0,0,1,0,0.5,0,1 @ F,0,0,1,0,0.5,0,1 @ F,0,0,1,0,0.5,0,1 @ F,0,0,1,0,0.5,0,1 @ F,0,0,1,0,0.5,0,1 @ F,0,0,1,0,0.5,0,1 @ F,0,0,1,0,0.5,0,1 @ F,0,0,1,0,0.5,0,1"
   radius="0"
   unit="px"
   method="auto"
   mode="F"
   chamfer_steps="1"
   flexible="false"
   use_knot_distance="true"
   apply_no_radius="true"
   apply_with_radius="true"
   only_selected="false"
   hide_knots="false" /><inkscape:path-effect
   effect="fillet_chamfer"
   id="path-effect289-8"
   is_visible="true"
   lpeversion="1"
   nodesatellites_param="F,0,0,1,0,0,0,1 @ F,0,0,1,0,0,0,1 @ F,0,0,1,0,0,0,1 @ F,0,0,1,0,0,0,1 @ F,0,0,1,0,0,0,1 @ F,0,0,1,0,0,0,1 @ F,0,0,1,0,0,0,1 @ F,0,0,1,0,0,0,1 @ F,0,0,1,0,0,0,1 @ F,0,0,1,0,0,0,1 @ F,0,0,1,0,0,0,1 @ F,0,0,1,0,0,0,1"
   radius="0"
   unit="px"
   method="auto"
   mode="F"
   chamfer_steps="1"
   flexible="false"
   use_knot_distance="true"
   apply_no_radius="true"
   apply_with_radius="true"
   only_selected="false"
   hide_knots="false" /><inkscape:path-effect
   effect="fillet_chamfer"
   id="path-effect253-5"
   is_visible="true"
   lpeversion="1"
   nodesatellites_param="F,0,0,1,0,0.5,0,1 @ F,0,0,1,0,0.5,0,1 @ F,0,0,1,0,0.5,0,1 @ F,0,0,1,0,0.5,0,1 @ F,0,0,1,0,0.5,0,1 @ F,0,0,1,0,0.5,0,1 @ F,0,0,1,0,0.5,0,1 @ F,0,0,1,0,0.5,0,1"
   radius="0"
   unit="px"
   method="auto"
   mode="F"
   chamfer_steps="1"
   flexible="false"
   use_knot_distance="true"
   apply_no_radius="true"
   apply_with_radius="true"
   only_selected="false"
   hide_knots="false" /><inkscape:path-effect
   effect="fillet_chamfer"
   id="path-effect251-0"
   is_visible="true"
   lpeversion="1"
   nodesatellites_param="F,0,0,1,0,0,0,1 @ F,0,0,1,0,0,0,1 @ F,0,0,1,0,0,0,1 @ F,0,0,1,0,0,0,1 @ F,0,0,1,0,0,0,1 @ F,0,0,1,0,0,0,1 @ F,0,0,1,0,0,0,1 @ F,0,0,1,0,0,0,1 @ F,0,0,1,0,0,0,1 @ F,0,0,1,0,0,0,1 @ F,0,0,1,0,0,0,1 @ F,0,0,1,0,0,0,1"
   radius="0"
   unit="px"
   method="auto"
   mode="F"
   chamfer_steps="1"
   flexible="false"
   use_knot_distance="true"
   apply_no_radius="true"
   apply_with_radius="true"
   only_selected="false"
   hide_knots="false" /><inkscape:path-effect
   effect="fillet_chamfer"
   id="path-effect249-6"
   is_visible="true"
   lpeversion="1"
   nodesatellites_param="F,0,0,1,0,0.5,0,1 @ F,0,0,1,0,0.5,0,1 @ F,0,0,1,0,0.5,0,1 @ F,0,0,1,0,0.5,0,1 @ F,0,0,1,0,0.5,0,1 @ F,0,0,1,0,0.5,0,1 @ F,0,0,1,0,0.5,0,1 @ F,0,0,1,0,0.5,0,1"
   radius="0"
   unit="px"
   method="auto"
   mode="F"
   chamfer_steps="1"
   flexible="false"
   use_knot_distance="true"
   apply_no_radius="true"
   apply_with_radius="true"
   only_selected="false"
   hide_knots="false" /><inkscape:path-effect
   effect="fillet_chamfer"
   id="path-effect247-4"
   is_visible="true"
   lpeversion="1"
   nodesatellites_param="F,0,0,1,0,0,0,1 @ F,0,0,1,0,0,0,1 @ F,0,0,1,0,0,0,1 @ F,0,0,1,0,0,0,1 @ F,0,0,1,0,0,0,1 @ F,0,0,1,0,0,0,1 @ F,0,0,1,0,0,0,1 @ F,0,0,1,0,0,0,1 @ F,0,0,1,0,0,0,1 @ F,0,0,1,0,0,0,1 @ F,0,0,1,0,0,0,1 @ F,0,0,1,0,0,0,1"
   radius="0"
   unit="px"
   method="auto"
   mode="F"
   chamfer_steps="1"
   flexible="false"
   use_knot_distance="true"
   apply_no_radius="true"
   apply_with_radius="true"
   only_selected="false"
   hide_knots="false" /><inkscape:path-effect
   effect="fillet_chamfer"
   id="path-effect245-6"
   is_visible="true"
   lpeversion="1"
   nodesatellites_param="F,0,0,1,0,0.5,0,1 @ F,0,0,1,0,0.5,0,1 @ F,0,0,1,0,0.5,0,1 @ F,0,0,1,0,0.5,0,1 @ F,0,0,1,0,0.5,0,1 @ F,0,0,1,0,0.5,0,1 @ F,0,0,1,0,0.5,0,1 @ F,0,0,1,0,0.5,0,1"
   radius="0"
   unit="px"
   method="auto"
   mode="F"
   chamfer_steps="1"
   flexible="false"
   use_knot_distance="true"
   apply_no_radius="true"
   apply_with_radius="true"
   only_selected="false"
   hide_knots="false" /><inkscape:path-effect
   effect="fillet_chamfer"
   id="path-effect243-2"
   is_visible="true"
   lpeversion="1"
   nodesatellites_param="F,0,0,1,0,0,0,1 @ F,0,0,1,0,0,0,1 @ F,0,0,1,0,0,0,1 @ F,0,0,1,0,0,0,1 @ F,0,0,1,0,0,0,1 @ F,0,0,1,0,0,0,1 @ F,0,0,1,0,0,0,1 @ F,0,0,1,0,0,0,1 @ F,0,0,1,0,0,0,1 @ F,0,0,1,0,0,0,1 @ F,0,0,1,0,0,0,1 @ F,0,0,1,0,0,0,1"
   radius="0"
   unit="px"
   method="auto"
   mode="F"
   chamfer_steps="1"
   flexible="false"
   use_knot_distance="true"
   apply_no_radius="true"
   apply_with_radius="true"
   only_selected="false"
   hide_knots="false" /><inkscape:path-effect
   effect="fillet_chamfer"
   id="path-effect241-5"
   is_visible="true"
   lpeversion="1"
   nodesatellites_param="F,0,0,1,0,0.5,0,1 @ F,0,0,1,0,0.5,0,1 @ F,0,0,1,0,0.5,0,1 @ F,0,0,1,0,0.5,0,1 @ F,0,0,1,0,0.5,0,1 @ F,0,0,1,0,0.5,0,1 @ F,0,0,1,0,0.5,0,1 @ F,0,0,1,0,0.5,0,1"
   radius="0"
   unit="px"
   method="auto"
   mode="F"
   chamfer_steps="1"
   flexible="false"
   use_knot_distance="true"
   apply_no_radius="true"
   apply_with_radius="true"
   only_selected="false"
   hide_knots="false" /><inkscape:path-effect
   effect="fillet_chamfer"
   id="path-effect239-8"
   is_visible="true"
   lpeversion="1"
   nodesatellites_param="F,0,0,1,0,0,0,1 @ F,0,0,1,0,0,0,1 @ F,0,0,1,0,0,0,1 @ F,0,0,1,0,0,0,1 @ F,0,0,1,0,0,0,1 @ F,0,0,1,0,0,0,1 @ F,0,0,1,0,0,0,1 @ F,0,0,1,0,0,0,1 @ F,0,0,1,0,0,0,1 @ F,0,0,1,0,0,0,1 @ F,0,0,1,0,0,0,1 @ F,0,0,1,0,0,0,1"
   radius="0"
   unit="px"
   method="auto"
   mode="F"
   chamfer_steps="1"
   flexible="false"
   use_knot_distance="true"
   apply_no_radius="true"
   apply_with_radius="true"
   only_selected="false"
   hide_knots="false" /><inkscape:path-effect
   effect="fillet_chamfer"
   id="path-effect237-6"
   is_visible="true"
   lpeversion="1"
   nodesatellites_param="F,0,0,1,0,0.5,0,1 @ F,0,0,1,0,0.5,0,1 @ F,0,0,1,0,0.5,0,1 @ F,0,0,1,0,0.5,0,1 @ F,0,0,1,0,0.5,0,1 @ F,0,0,1,0,0.5,0,1 @ F,0,0,1,0,0.5,0,1 @ F,0,0,1,0,0.5,0,1"
   radius="0"
   unit="px"
   method="auto"
   mode="F"
   chamfer_steps="1"
   flexible="false"
   use_knot_distance="true"
   apply_no_radius="true"
   apply_with_radius="true"
   only_selected="false"
   hide_knots="false" /><inkscape:path-effect
   effect="fillet_chamfer"
   id="path-effect235-2"
   is_visible="true"
   lpeversion="1"
   nodesatellites_param="F,0,0,1,0,0,0,1 @ F,0,0,1,0,0,0,1 @ F,0,0,1,0,0,0,1 @ F,0,0,1,0,0,0,1 @ F,0,0,1,0,0,0,1 @ F,0,0,1,0,0,0,1 @ F,0,0,1,0,0,0,1 @ F,0,0,1,0,0,0,1 @ F,0,0,1,0,0,0,1 @ F,0,0,1,0,0,0,1 @ F,0,0,1,0,0,0,1 @ F,0,0,1,0,0,0,1"
   radius="0"
   unit="px"
   method="auto"
   mode="F"
   chamfer_steps="1"
   flexible="false"
   use_knot_distance="true"
   apply_no_radius="true"
   apply_with_radius="true"
   only_selected="false"
   hide_knots="false" /><inkscape:path-effect
   effect="fillet_chamfer"
   id="path-effect233-8"
   is_visible="true"
   lpeversion="1"
   nodesatellites_param="F,0,0,1,0,0.5,0,1 @ F,0,0,1,0,0.5,0,1 @ F,0,0,1,0,0.5,0,1 @ F,0,0,1,0,0.5,0,1 @ F,0,0,1,0,0.5,0,1 @ F,0,0,1,0,0.5,0,1 @ F,0,0,1,0,0.5,0,1 @ F,0,0,1,0,0.5,0,1"
   radius="0"
   unit="px"
   method="auto"
   mode="F"
   chamfer_steps="1"
   flexible="false"
   use_knot_distance="true"
   apply_no_radius="true"
   apply_with_radius="true"
   only_selected="false"
   hide_knots="false" /><inkscape:path-effect
   effect="fillet_chamfer"
   id="path-effect231-4"
   is_visible="true"
   lpeversion="1"
   nodesatellites_param="F,0,0,1,0,0,0,1 @ F,0,0,1,0,0,0,1 @ F,0,0,1,0,0,0,1 @ F,0,0,1,0,0,0,1 @ F,0,0,1,0,0,0,1 @ F,0,0,1,0,0,0,1 @ F,0,0,1,0,0,0,1 @ F,0,0,1,0,0,0,1 @ F,0,0,1,0,0,0,1 @ F,0,0,1,0,0,0,1 @ F,0,0,1,0,0,0,1 @ F,0,0,1,0,0,0,1"
   radius="0"
   unit="px"
   method="auto"
   mode="F"
   chamfer_steps="1"
   flexible="false"
   use_knot_distance="true"
   apply_no_radius="true"
   apply_with_radius="true"
   only_selected="false"
   hide_knots="false" /><inkscape:path-effect
   effect="fillet_chamfer"
   id="path-effect229-7"
   is_visible="true"
   lpeversion="1"
   nodesatellites_param="F,0,0,1,0,0.5,0,1 @ F,0,0,1,0,0.5,0,1 @ F,0,0,1,0,0.5,0,1 @ F,0,0,1,0,0.5,0,1 @ F,0,0,1,0,0.5,0,1 @ F,0,0,1,0,0.5,0,1 @ F,0,0,1,0,0.5,0,1 @ F,0,0,1,0,0.5,0,1"
   radius="0"
   unit="px"
   method="auto"
   mode="F"
   chamfer_steps="1"
   flexible="false"
   use_knot_distance="true"
   apply_no_radius="true"
   apply_with_radius="true"
   only_selected="false"
   hide_knots="false" /><inkscape:path-effect
   effect="fillet_chamfer"
   id="path-effect227-2"
   is_visible="true"
   lpeversion="1"
   nodesatellites_param="F,0,0,1,0,0,0,1 @ F,0,0,1,0,0,0,1 @ F,0,0,1,0,0,0,1 @ F,0,0,1,0,0,0,1 @ F,0,0,1,0,0,0,1 @ F,0,0,1,0,0,0,1 @ F,0,0,1,0,0,0,1 @ F,0,0,1,0,0,0,1 @ F,0,0,1,0,0,0,1 @ F,0,0,1,0,0,0,1 @ F,0,0,1,0,0,0,1 @ F,0,0,1,0,0,0,1"
   radius="0"
   unit="px"
   method="auto"
   mode="F"
   chamfer_steps="1"
   flexible="false"
   use_knot_distance="true"
   apply_no_radius="true"
   apply_with_radius="true"
   only_selected="false"
   hide_knots="false" /><inkscape:path-effect
   effect="fillet_chamfer"
   id="path-effect123-4"
   is_visible="true"
   lpeversion="1"
   nodesatellites_param="F,0,0,1,0,0.5,0,1 @ F,0,0,1,0,0.5,0,1 @ F,0,0,1,0,0.5,0,1 @ F,0,0,1,0,0.5,0,1 @ F,0,0,1,0,0.5,0,1 @ F,0,0,1,0,0.5,0,1 @ F,0,0,1,0,0.5,0,1 @ F,0,0,1,0,0.5,0,1"
   radius="0"
   unit="px"
   method="auto"
   mode="F"
   chamfer_steps="1"
   flexible="false"
   use_knot_distance="true"
   apply_no_radius="true"
   apply_with_radius="true"
   only_selected="false"
   hide_knots="false" /><inkscape:path-effect
   effect="fillet_chamfer"
   id="path-effect121-0"
   is_visible="true"
   lpeversion="1"
   nodesatellites_param="F,0,0,1,0,0,0,1 @ F,0,0,1,0,0,0,1 @ F,0,0,1,0,0,0,1 @ F,0,0,1,0,0,0,1 @ F,0,0,1,0,0,0,1 @ F,0,0,1,0,0,0,1 @ F,0,0,1,0,0,0,1 @ F,0,0,1,0,0,0,1 @ F,0,0,1,0,0,0,1 @ F,0,0,1,0,0,0,1 @ F,0,0,1,0,0,0,1 @ F,0,0,1,0,0,0,1"
   radius="0"
   unit="px"
   method="auto"
   mode="F"
   chamfer_steps="1"
   flexible="false"
   use_knot_distance="true"
   apply_no_radius="true"
   apply_with_radius="true"
   only_selected="false"
   hide_knots="false" /><inkscape:path-effect
   effect="fillet_chamfer"
   id="path-effect117-6"
   is_visible="true"
   lpeversion="1"
   nodesatellites_param="F,0,0,1,0,0.5,0,1 @ F,0,0,1,0,0.5,0,1 @ F,0,0,1,0,0.5,0,1 @ F,0,0,1,0,0.5,0,1 @ F,0,0,1,0,0.5,0,1 @ F,0,0,1,0,0.5,0,1 @ F,0,0,1,0,0.5,0,1 @ F,0,0,1,0,0.5,0,1"
   radius="0"
   unit="px"
   method="auto"
   mode="F"
   chamfer_steps="1"
   flexible="false"
   use_knot_distance="true"
   apply_no_radius="true"
   apply_with_radius="true"
   only_selected="false"
   hide_knots="false" /><inkscape:path-effect
   effect="fillet_chamfer"
   id="path-effect115-2"
   is_visible="true"
   lpeversion="1"
   nodesatellites_param="F,0,0,1,0,0,0,1 @ F,0,0,1,0,0,0,1 @ F,0,0,1,0,0,0,1 @ F,0,0,1,0,0,0,1 @ F,0,0,1,0,0,0,1 @ F,0,0,1,0,0,0,1 @ F,0,0,1,0,0,0,1 @ F,0,0,1,0,0,0,1 @ F,0,0,1,0,0,0,1 @ F,0,0,1,0,0,0,1 @ F,0,0,1,0,0,0,1 @ F,0,0,1,0,0,0,1"
   radius="0"
   unit="px"
   method="auto"
   mode="F"
   chamfer_steps="1"
   flexible="false"
   use_knot_distance="true"
   apply_no_radius="true"
   apply_with_radius="true"
   only_selected="false"
   hide_knots="false" /><inkscape:path-effect
   effect="fillet_chamfer"
   id="path-effect111-9"
   is_visible="true"
   lpeversion="1"
   nodesatellites_param="F,0,0,1,0,0.5,0,1 @ F,0,0,1,0,0.5,0,1 @ F,0,0,1,0,0.5,0,1 @ F,0,0,1,0,0.5,0,1 @ F,0,0,1,0,0.5,0,1 @ F,0,0,1,0,0.5,0,1 @ F,0,0,1,0,0.5,0,1 @ F,0,0,1,0,0.5,0,1"
   radius="0"
   unit="px"
   method="auto"
   mode="F"
   chamfer_steps="1"
   flexible="false"
   use_knot_distance="true"
   apply_no_radius="true"
   apply_with_radius="true"
   only_selected="false"
   hide_knots="false" /><inkscape:path-effect
   effect="fillet_chamfer"
   id="path-effect109-9"
   is_visible="true"
   lpeversion="1"
   nodesatellites_param="F,0,0,1,0,0,0,1 @ F,0,0,1,0,0,0,1 @ F,0,0,1,0,0,0,1 @ F,0,0,1,0,0,0,1 @ F,0,0,1,0,0,0,1 @ F,0,0,1,0,0,0,1 @ F,0,0,1,0,0,0,1 @ F,0,0,1,0,0,0,1 @ F,0,0,1,0,0,0,1 @ F,0,0,1,0,0,0,1 @ F,0,0,1,0,0,0,1 @ F,0,0,1,0,0,0,1"
   radius="0"
   unit="px"
   method="auto"
   mode="F"
   chamfer_steps="1"
   flexible="false"
   use_knot_distance="true"
   apply_no_radius="true"
   apply_with_radius="true"
   only_selected="false"
   hide_knots="false" /><inkscape:path-effect
   effect="fillet_chamfer"
   id="path-effect105-0"
   is_visible="true"
   lpeversion="1"
   nodesatellites_param="F,0,0,1,0,0.5,0,1 @ F,0,0,1,0,0.5,0,1 @ F,0,0,1,0,0.5,0,1 @ F,0,0,1,0,0.5,0,1 @ F,0,0,1,0,0.5,0,1 @ F,0,0,1,0,0.5,0,1 @ F,0,0,1,0,0.5,0,1 @ F,0,0,1,0,0.5,0,1"
   radius="0"
   unit="px"
   method="auto"
   mode="F"
   chamfer_steps="1"
   flexible="false"
   use_knot_distance="true"
   apply_no_radius="true"
   apply_with_radius="true"
   only_selected="false"
   hide_knots="false" /><inkscape:path-effect
   effect="fillet_chamfer"
   id="path-effect103-8"
   is_visible="true"
   lpeversion="1"
   nodesatellites_param="F,0,0,1,0,0,0,1 @ F,0,0,1,0,0,0,1 @ F,0,0,1,0,0,0,1 @ F,0,0,1,0,0,0,1 @ F,0,0,1,0,0,0,1 @ F,0,0,1,0,0,0,1 @ F,0,0,1,0,0,0,1 @ F,0,0,1,0,0,0,1 @ F,0,0,1,0,0,0,1 @ F,0,0,1,0,0,0,1 @ F,0,0,1,0,0,0,1 @ F,0,0,1,0,0,0,1"
   radius="0"
   unit="px"
   method="auto"
   mode="F"
   chamfer_steps="1"
   flexible="false"
   use_knot_distance="true"
   apply_no_radius="true"
   apply_with_radius="true"
   only_selected="false"
   hide_knots="false" /><inkscape:path-effect
   effect="fillet_chamfer"
   id="path-effect99-1"
   is_visible="true"
   lpeversion="1"
   nodesatellites_param="F,0,0,1,0,0.5,0,1 @ F,0,0,1,0,0.5,0,1 @ F,0,0,1,0,0.5,0,1 @ F,0,0,1,0,0.5,0,1 @ F,0,0,1,0,0.5,0,1 @ F,0,0,1,0,0.5,0,1 @ F,0,0,1,0,0.5,0,1 @ F,0,0,1,0,0.5,0,1"
   radius="0"
   unit="px"
   method="auto"
   mode="F"
   chamfer_steps="1"
   flexible="false"
   use_knot_distance="true"
   apply_no_radius="true"
   apply_with_radius="true"
   only_selected="false"
   hide_knots="false" /><inkscape:path-effect
   effect="fillet_chamfer"
   id="path-effect97-3"
   is_visible="true"
   lpeversion="1"
   nodesatellites_param="F,0,0,1,0,0,0,1 @ F,0,0,1,0,0,0,1 @ F,0,0,1,0,0,0,1 @ F,0,0,1,0,0,0,1 @ F,0,0,1,0,0,0,1 @ F,0,0,1,0,0,0,1 @ F,0,0,1,0,0,0,1 @ F,0,0,1,0,0,0,1 @ F,0,0,1,0,0,0,1 @ F,0,0,1,0,0,0,1 @ F,0,0,1,0,0,0,1 @ F,0,0,1,0,0,0,1"
   radius="0"
   unit="px"
   method="auto"
   mode="F"
   chamfer_steps="1"
   flexible="false"
   use_knot_distance="true"
   apply_no_radius="true"
   apply_with_radius="true"
   only_selected="false"
   hide_knots="false" /><inkscape:path-effect
   effect="fillet_chamfer"
   id="path-effect93-1"
   is_visible="true"
   lpeversion="1"
   nodesatellites_param="F,0,0,1,0,0.5,0,1 @ F,0,0,1,0,0.5,0,1 @ F,0,0,1,0,0.5,0,1 @ F,0,0,1,0,0.5,0,1 @ F,0,0,1,0,0.5,0,1 @ F,0,0,1,0,0.5,0,1 @ F,0,0,1,0,0.5,0,1 @ F,0,0,1,0,0.5,0,1"
   radius="0"
   unit="px"
   method="auto"
   mode="F"
   chamfer_steps="1"
   flexible="false"
   use_knot_distance="true"
   apply_no_radius="true"
   apply_with_radius="true"
   only_selected="false"
   hide_knots="false" /><inkscape:path-effect
   effect="fillet_chamfer"
   id="path-effect91-1"
   is_visible="true"
   lpeversion="1"
   nodesatellites_param="F,0,0,1,0,0,0,1 @ F,0,0,1,0,0,0,1 @ F,0,0,1,0,0,0,1 @ F,0,0,1,0,0,0,1 @ F,0,0,1,0,0,0,1 @ F,0,0,1,0,0,0,1 @ F,0,0,1,0,0,0,1 @ F,0,0,1,0,0,0,1 @ F,0,0,1,0,0,0,1 @ F,0,0,1,0,0,0,1 @ F,0,0,1,0,0,0,1 @ F,0,0,1,0,0,0,1"
   radius="0"
   unit="px"
   method="auto"
   mode="F"
   chamfer_steps="1"
   flexible="false"
   use_knot_distance="true"
   apply_no_radius="true"
   apply_with_radius="true"
   only_selected="false"
   hide_knots="false" /><inkscape:path-effect
   effect="fillet_chamfer"
   id="path-effect86-0"
   is_visible="true"
   lpeversion="1"
   nodesatellites_param="F,0,0,1,0,0,0,1 @ F,0,0,1,0,0,0,1 @ F,0,0,1,0,0,0,1 @ F,0,0,1,0,0,0,1 @ F,0,0,1,0,0,0,1 @ F,0,0,1,0,0,0,1 @ F,0,0,1,0,0,0,1 @ F,0,0,1,0,0,0,1 @ F,0,0,1,0,0,0,1 @ F,0,0,1,0,0,0,1 @ F,0,0,1,0,0,0,1 @ F,0,0,1,0,0,0,1"
   radius="0"
   unit="px"
   method="auto"
   mode="F"
   chamfer_steps="1"
   flexible="false"
   use_knot_distance="true"
   apply_no_radius="true"
   apply_with_radius="true"
   only_selected="false"
   hide_knots="false" /><inkscape:path-effect
   effect="fillet_chamfer"
   id="path-effect85-3"
   is_visible="true"
   lpeversion="1"
   nodesatellites_param="F,0,0,1,0,0.5,0,1 @ F,0,0,1,0,0.5,0,1 @ F,0,0,1,0,0.5,0,1 @ F,0,0,1,0,0.5,0,1 @ F,0,0,1,0,0.5,0,1 @ F,0,0,1,0,0.5,0,1 @ F,0,0,1,0,0.5,0,1 @ F,0,0,1,0,0.5,0,1"
   radius="1.8897638"
   unit="px"
   method="auto"
   mode="F"
   chamfer_steps="1"
   flexible="false"
   use_knot_distance="true"
   apply_no_radius="true"
   apply_with_radius="true"
   only_selected="false"
   hide_knots="false" /><font
   id="EmbeddedFont_1-4"
   horiz-adv-x="2048"
   horiz-origin-x="0"
   horiz-origin-y="0"
   vert-origin-x="512"
   vert-origin-y="768"
   vert-adv-y="1024">
   <font-face
   font-family="Arial embedded"
   units-per-em="2048"
   font-weight="normal"
   font-style="normal"
   ascent="1852"
   descent="423"
   id="font-face2-0" />
   <missing-glyph
   horiz-adv-x="2048"
   d="M 0,0 L 2047,0 2047,2047 0,2047 0,0 Z"
   id="missing-glyph4-3" />
   <glyph
   unicode="o"
   horiz-adv-x="980"
   d="M 1053,542 C 1053,353 1011,212 928,119 845,26 724,-20 565,-20 407,-20 288,28 207,125 126,221 86,360 86,542 86,915 248,1102 571,1102 736,1102 858,1057 936,966 1014,875 1053,733 1053,542 Z M 864,542 C 864,691 842,800 798,868 753,935 679,969 574,969 469,969 393,935 346,866 299,797 275,689 275,542 275,399 298,292 345,221 391,149 464,113 563,113 671,113 748,148 795,217 841,286 864,395 864,542 Z"
   id="glyph6-9" />
   <glyph
   unicode="m"
   horiz-adv-x="1457"
   d="M 768,0 L 768,686 C 768,791 754,863 725,903 696,943 645,963 570,963 493,963 433,934 388,875 343,816 321,734 321,627 L 321,0 142,0 142,851 C 142,977 140,1054 136,1082 L 306,1082 C 307,1079 307,1070 308,1055 309,1040 310,1024 311,1005 312,986 313,950 314,897 L 317,897 C 356,974 400,1027 450,1057 500,1087 561,1102 633,1102 715,1102 780,1086 828,1053 875,1020 908,968 927,897 L 930,897 C 967,970 1013,1022 1066,1054 1119,1086 1183,1102 1258,1102 1367,1102 1447,1072 1497,1013 1546,954 1571,856 1571,721 L 1571,0 1393,0 1393,686 C 1393,791 1379,863 1350,903 1321,943 1270,963 1195,963 1116,963 1055,934 1012,876 968,817 946,734 946,627 L 946,0 768,0 Z"
   id="glyph8-1" />
   <glyph
   unicode="l"
   horiz-adv-x="187"
   d="M 138,0 L 138,1484 318,1484 318,0 138,0 Z"
   id="glyph10-9" />
   <glyph
   unicode="k"
   horiz-adv-x="901"
   d="M 816,0 L 450,494 318,385 318,0 138,0 138,1484 318,1484 318,557 793,1082 1004,1082 565,617 1027,0 816,0 Z"
   id="glyph12-6" />
   <glyph
   unicode="i"
   horiz-adv-x="187"
   d="M 137,0 L 137,1082 317,1082 317,0 137,0 Z M 137,1312 L 137,1484 317,1484 317,1312 137,1312 Z"
   id="glyph14-9" />
   <glyph
   unicode="e"
   horiz-adv-x="980"
   d="M 276,503 C 276,379 302,283 353,216 404,149 479,115 578,115 656,115 719,131 766,162 813,193 844,233 861,281 L 1019,236 C 954,65 807,-20 578,-20 418,-20 296,28 213,123 129,218 87,360 87,548 87,727 129,864 213,959 296,1054 416,1102 571,1102 889,1102 1048,910 1048,527 L 1048,503 276,503 Z M 862,641 C 852,755 823,838 775,891 727,943 658,969 568,969 481,969 412,940 361,882 310,823 282,743 278,641 L 862,641 Z"
   id="glyph16-3" />
   <glyph
   unicode="d"
   horiz-adv-x="927"
   d="M 821,174 C 788,105 744,55 689,25 634,-5 565,-20 484,-20 347,-20 247,26 183,118 118,210 86,349 86,536 86,913 219,1102 484,1102 566,1102 634,1087 689,1057 744,1027 788,979 821,914 L 823,914 821,1035 821,1484 1001,1484 1001,223 C 1001,110 1003,36 1007,0 L 835,0 C 833,11 831,35 829,74 826,113 825,146 825,174 L 821,174 Z M 275,542 C 275,391 295,282 335,217 375,152 440,119 530,119 632,119 706,154 752,225 798,296 821,405 821,554 821,697 798,802 752,869 706,936 633,969 532,969 441,969 376,936 336,869 295,802 275,693 275,542 Z"
   id="glyph18-3" />
   <glyph
   unicode="c"
   horiz-adv-x="901"
   d="M 275,546 C 275,402 298,295 343,226 388,157 457,122 548,122 612,122 666,139 709,174 752,209 778,262 788,334 L 970,322 C 956,218 912,135 837,73 762,11 668,-20 553,-20 402,-20 286,28 207,124 127,219 87,359 87,542 87,724 127,863 207,959 287,1054 402,1102 551,1102 662,1102 754,1073 827,1016 900,959 945,880 964,779 L 779,765 C 770,825 746,873 708,908 670,943 616,961 546,961 451,961 382,929 339,866 296,803 275,696 275,546 Z"
   id="glyph20-8" />
   <glyph
   unicode="a"
   horiz-adv-x="1060"
   d="M 414,-20 C 305,-20 224,9 169,66 114,123 87,202 87,302 87,414 124,500 198,560 271,620 390,652 554,656 L 797,660 797,719 C 797,807 778,870 741,908 704,946 645,965 565,965 484,965 426,951 389,924 352,897 330,853 323,793 L 135,810 C 166,1005 310,1102 569,1102 705,1102 807,1071 876,1009 945,946 979,856 979,738 L 979,272 C 979,219 986,179 1000,152 1014,125 1041,111 1080,111 1097,111 1117,113 1139,118 L 1139,6 C 1094,-5 1047,-10 1000,-10 933,-10 885,8 855,43 824,78 807,132 803,207 L 797,207 C 751,124 698,66 637,32 576,-3 501,-20 414,-20 Z M 455,115 C 521,115 580,130 631,160 682,190 723,231 753,284 782,336 797,390 797,445 L 797,534 600,530 C 515,529 451,520 408,504 364,488 330,463 307,430 284,397 272,353 272,299 272,240 288,195 320,163 351,131 396,115 455,115 Z"
   id="glyph22-0" />
   <glyph
   unicode="S"
   horiz-adv-x="1192"
   d="M 1272,389 C 1272,259 1221,158 1120,87 1018,16 875,-20 690,-20 347,-20 148,99 93,338 L 278,375 C 299,290 345,228 414,189 483,149 578,129 697,129 820,129 916,150 983,193 1050,235 1083,297 1083,379 1083,425 1073,462 1052,491 1031,520 1001,543 963,562 925,581 880,596 827,609 774,622 716,635 652,650 541,675 456,699 399,724 341,749 295,776 262,807 229,837 203,872 186,913 168,954 159,1000 159,1053 159,1174 205,1267 298,1332 390,1397 522,1430 694,1430 854,1430 976,1406 1061,1357 1146,1308 1205,1224 1239,1106 L 1051,1073 C 1030,1148 991,1202 933,1236 875,1269 795,1286 692,1286 579,1286 493,1267 434,1230 375,1193 345,1137 345,1063 345,1020 357,984 380,956 403,927 436,903 479,884 522,864 609,840 738,811 781,801 825,791 868,781 911,770 952,758 991,744 1030,729 1067,712 1102,693 1136,674 1166,650 1191,622 1216,594 1236,561 1251,523 1265,485 1272,440 1272,389 Z"
   id="glyph24-5" />
   <glyph
   unicode="R"
   horiz-adv-x="1244"
   d="M 1164,0 L 798,585 359,585 359,0 168,0 168,1409 831,1409 C 990,1409 1112,1374 1199,1303 1285,1232 1328,1133 1328,1006 1328,901 1298,813 1237,742 1176,671 1091,626 984,607 L 1384,0 1164,0 Z M 1136,1004 C 1136,1086 1108,1149 1053,1192 997,1235 917,1256 812,1256 L 359,1256 359,736 820,736 C 921,736 999,760 1054,807 1109,854 1136,919 1136,1004 Z"
   id="glyph26-6" />
   <glyph
   unicode="P"
   horiz-adv-x="1112"
   d="M 1258,985 C 1258,852 1215,746 1128,667 1041,588 922,549 773,549 L 359,549 359,0 168,0 168,1409 761,1409 C 919,1409 1041,1372 1128,1298 1215,1224 1258,1120 1258,985 Z M 1066,983 C 1066,1165 957,1256 738,1256 L 359,1256 359,700 746,700 C 959,700 1066,794 1066,983 Z"
   id="glyph28-6" />
   <glyph
   unicode="M"
   horiz-adv-x="1377"
   d="M 1366,0 L 1366,940 C 1366,1044 1369,1144 1375,1240 1342,1121 1313,1027 1287,960 L 923,0 789,0 420,960 364,1130 331,1240 334,1129 338,940 338,0 168,0 168,1409 419,1409 794,432 C 807,393 820,351 833,306 845,261 853,228 857,208 862,235 874,275 891,330 908,384 919,418 925,432 L 1293,1409 1538,1409 1538,0 1366,0 Z"
   id="glyph30-4" />
   </font>
</defs>
</svg>
